  0
SECTION
  2
HEADER
  9
$ACADVER
  1
AC1032
  9
$ACADMAINTVER
 90
      110
  9
$DWGCODEPAGE
  3
ANSI_1252
  9
$LASTSAVEDBY
  1
karlwilson
  9
$REQUIREDVERSIONS
160
                 0
  9
$INSBASE
 10
0.0
 20
0.0
 30
0.0
  9
$EXTMIN
 10
14.3357341842896
 20
-27.31413762899768
 30
-0.0015258207003583
  9
$EXTMAX
 10
190.7638603269244
 20
125.908614920352
 30
0.0000000349246037
  9
$LIMMIN
 10
0.0
 20
0.0
  9
$LIMMAX
 10
12.0
 20
9.0
  9
$ORTHOMODE
 70
     1
  9
$REGENMODE
 70
     1
  9
$FILLMODE
 70
     1
  9
$QTEXTMODE
 70
     0
  9
$MIRRTEXT
 70
     0
  9
$LTSCALE
 40
1.0
  9
$ATTMODE
 70
     1
  9
$TEXTSIZE
 40
0.2
  9
$TRACEWID
 40
0.05
  9
$TEXTSTYLE
  7
Standard
  9
$CLAYER
  8
0
  9
$CELTYPE
  6
ByLayer
  9
$CECOLOR
 62
   256
  9
$CELTSCALE
 40
1.0
  9
$DISPSILH
 70
     0
  9
$DIMSCALE
 40
1.0
  9
$DIMASZ
 40
0.18
  9
$DIMEXO
 40
0.0625
  9
$DIMDLI
 40
0.38
  9
$DIMRND
 40
0.0
  9
$DIMDLE
 40
0.0
  9
$DIMEXE
 40
0.18
  9
$DIMTP
 40
0.0
  9
$DIMTM
 40
0.0
  9
$DIMTXT
 40
0.18
  9
$DIMCEN
 40
0.09
  9
$DIMTSZ
 40
0.0
  9
$DIMTOL
 70
     0
  9
$DIMLIM
 70
     0
  9
$DIMTIH
 70
     1
  9
$DIMTOH
 70
     1
  9
$DIMSE1
 70
     0
  9
$DIMSE2
 70
     0
  9
$DIMTAD
 70
     0
  9
$DIMZIN
 70
     0
  9
$DIMBLK
  1

  9
$DIMASO
 70
     1
  9
$DIMSHO
 70
     1
  9
$DIMPOST
  1

  9
$DIMAPOST
  1

  9
$DIMALT
 70
     0
  9
$DIMALTD
 70
     2
  9
$DIMALTF
 40
25.4
  9
$DIMLFAC
 40
1.0
  9
$DIMTOFL
 70
     0
  9
$DIMTVP
 40
0.0
  9
$DIMTIX
 70
     0
  9
$DIMSOXD
 70
     0
  9
$DIMSAH
 70
     0
  9
$DIMBLK1
  1

  9
$DIMBLK2
  1

  9
$DIMSTYLE
  2
Standard
  9
$DIMCLRD
 70
     0
  9
$DIMCLRE
 70
     0
  9
$DIMCLRT
 70
     0
  9
$DIMTFAC
 40
1.0
  9
$DIMGAP
 40
0.09
  9
$DIMJUST
 70
     0
  9
$DIMSD1
 70
     0
  9
$DIMSD2
 70
     0
  9
$DIMTOLJ
 70
     1
  9
$DIMTZIN
 70
     0
  9
$DIMALTZ
 70
     0
  9
$DIMALTTZ
 70
     0
  9
$DIMUPT
 70
     0
  9
$DIMDEC
 70
     4
  9
$DIMTDEC
 70
     4
  9
$DIMALTU
 70
     2
  9
$DIMALTTD
 70
     2
  9
$DIMTXSTY
  7
Standard
  9
$DIMAUNIT
 70
     0
  9
$DIMADEC
 70
     0
  9
$DIMALTRND
 40
0.0
  9
$DIMAZIN
 70
     0
  9
$DIMDSEP
 70
    46
  9
$DIMATFIT
 70
     3
  9
$DIMFRAC
 70
     0
  9
$DIMLDRBLK
  1

  9
$DIMLUNIT
 70
     2
  9
$DIMLWD
 70
    -2
  9
$DIMLWE
 70
    -2
  9
$DIMTMOVE
 70
     0
  9
$DIMFXL
 40
1.0
  9
$DIMFXLON
 70
     0
  9
$DIMJOGANG
 40
0.7853981633974483
  9
$DIMTFILL
 70
     0
  9
$DIMTFILLCLR
 70
     0
  9
$DIMARCSYM
 70
     0
  9
$DIMLTYPE
  6

  9
$DIMLTEX1
  6

  9
$DIMLTEX2
  6

  9
$DIMTXTDIRECTION
 70
     0
  9
$LUNITS
 70
     2
  9
$LUPREC
 70
     4
  9
$SKETCHINC
 40
0.1
  9
$FILLETRAD
 40
0.0
  9
$AUNITS
 70
     0
  9
$AUPREC
 70
     0
  9
$MENU
  1
.
  9
$ELEVATION
 40
0.0
  9
$PELEVATION
 40
0.0
  9
$THICKNESS
 40
0.0
  9
$LIMCHECK
 70
     0
  9
$CHAMFERA
 40
0.0
  9
$CHAMFERB
 40
0.0
  9
$CHAMFERC
 40
0.0
  9
$CHAMFERD
 40
0.0
  9
$SKPOLY
 70
     0
  9
$TDCREATE
 40
2458531.837430555
  9
$TDUCREATE
 40
2458531.837436551
  9
$TDUPDATE
 40
2458749.884155093
  9
$TDUUPDATE
 40
2458749.842488426
  9
$TDINDWG
 40
0.1955625694
  9
$TDUSRTIMER
 40
0.1955618519
  9
$USRTIMER
 70
     1
  9
$ANGBASE
 50
0.0
  9
$ANGDIR
 70
     0
  9
$PDMODE
 70
     0
  9
$PDSIZE
 40
0.0
  9
$PLINEWID
 40
0.0
  9
$SPLFRAME
 70
     0
  9
$SPLINETYPE
 70
     6
  9
$SPLINESEGS
 70
     8
  9
$HANDSEED
  5
4AB
  9
$SURFTAB1
 70
     6
  9
$SURFTAB2
 70
     6
  9
$SURFTYPE
 70
     6
  9
$SURFU
 70
     6
  9
$SURFV
 70
     6
  9
$UCSBASE
  2

  9
$UCSNAME
  2

  9
$UCSORG
 10
0.0
 20
0.0
 30
0.0
  9
$UCSXDIR
 10
1.0
 20
0.0
 30
0.0
  9
$UCSYDIR
 10
0.0
 20
1.0
 30
0.0
  9
$UCSORTHOREF
  2

  9
$UCSORTHOVIEW
 70
     0
  9
$UCSORGTOP
 10
0.0
 20
0.0
 30
0.0
  9
$UCSORGBOTTOM
 10
0.0
 20
0.0
 30
0.0
  9
$UCSORGLEFT
 10
0.0
 20
0.0
 30
0.0
  9
$UCSORGRIGHT
 10
0.0
 20
0.0
 30
0.0
  9
$UCSORGFRONT
 10
0.0
 20
0.0
 30
0.0
  9
$UCSORGBACK
 10
0.0
 20
0.0
 30
0.0
  9
$PUCSBASE
  2

  9
$PUCSNAME
  2

  9
$PUCSORG
 10
0.0
 20
0.0
 30
0.0
  9
$PUCSXDIR
 10
1.0
 20
0.0
 30
0.0
  9
$PUCSYDIR
 10
0.0
 20
1.0
 30
0.0
  9
$PUCSORTHOREF
  2

  9
$PUCSORTHOVIEW
 70
     0
  9
$PUCSORGTOP
 10
0.0
 20
0.0
 30
0.0
  9
$PUCSORGBOTTOM
 10
0.0
 20
0.0
 30
0.0
  9
$PUCSORGLEFT
 10
0.0
 20
0.0
 30
0.0
  9
$PUCSORGRIGHT
 10
0.0
 20
0.0
 30
0.0
  9
$PUCSORGFRONT
 10
0.0
 20
0.0
 30
0.0
  9
$PUCSORGBACK
 10
0.0
 20
0.0
 30
0.0
  9
$USERI1
 70
     0
  9
$USERI2
 70
     0
  9
$USERI3
 70
     0
  9
$USERI4
 70
     0
  9
$USERI5
 70
     0
  9
$USERR1
 40
0.0
  9
$USERR2
 40
0.0
  9
$USERR3
 40
0.0
  9
$USERR4
 40
0.0
  9
$USERR5
 40
0.0
  9
$WORLDVIEW
 70
     1
  9
$SHADEDGE
 70
     3
  9
$SHADEDIF
 70
    70
  9
$TILEMODE
 70
     1
  9
$MAXACTVP
 70
    64
  9
$PINSBASE
 10
0.0
 20
0.0
 30
0.0
  9
$PLIMCHECK
 70
     0
  9
$PEXTMIN
 10
0.0
 20
0.0
 30
0.0
  9
$PEXTMAX
 10
0.0
 20
0.0
 30
0.0
  9
$PLIMMIN
 10
0.0
 20
0.0
  9
$PLIMMAX
 10
12.0
 20
9.0
  9
$UNITMODE
 70
     0
  9
$VISRETAIN
 70
     1
  9
$PLINEGEN
 70
     0
  9
$PSLTSCALE
 70
     1
  9
$TREEDEPTH
 70
  3020
  9
$CMLSTYLE
  2
Standard
  9
$CMLJUST
 70
     0
  9
$CMLSCALE
 40
1.0
  9
$PROXYGRAPHICS
 70
     1
  9
$MEASUREMENT
 70
     0
  9
$CELWEIGHT
370
    -1
  9
$ENDCAPS
280
     0
  9
$JOINSTYLE
280
     0
  9
$LWDISPLAY
290
     1
  9
$INSUNITS
 70
     1
  9
$HYPERLINKBASE
  1

  9
$STYLESHEET
  1

  9
$XEDIT
290
     1
  9
$CEPSNTYPE
380
     0
  9
$PSTYLEMODE
290
     1
  9
$FINGERPRINTGUID
  2
{7769C5BB-95E6-EC48-B4F2-186326D7971B}
  9
$VERSIONGUID
  2
{A3EEF391-2063-E145-9E3D-CFDF59F333D8}
  9
$EXTNAMES
290
     1
  9
$PSVPSCALE
 40
0.0
  9
$OLESTARTUP
290
     0
  9
$SORTENTS
280
   127
  9
$INDEXCTL
280
     0
  9
$HIDETEXT
280
     1
  9
$XCLIPFRAME
280
     2
  9
$HALOGAP
280
     0
  9
$OBSCOLOR
 70
   257
  9
$OBSLTYPE
280
     0
  9
$INTERSECTIONDISPLAY
280
     0
  9
$INTERSECTIONCOLOR
 70
   257
  9
$DIMASSOC
280
     2
  9
$PROJECTNAME
  1

  9
$CAMERADISPLAY
290
     0
  9
$LENSLENGTH
 40
50.0
  9
$CAMERAHEIGHT
 40
0.0
  9
$STEPSPERSEC
 40
2.0
  9
$STEPSIZE
 40
6.0
  9
$3DDWFPREC
 40
2.0
  9
$PSOLWIDTH
 40
0.25
  9
$PSOLHEIGHT
 40
4.0
  9
$LOFTANG1
 40
1.570796326794896
  9
$LOFTANG2
 40
1.570796326794896
  9
$LOFTMAG1
 40
0.0
  9
$LOFTMAG2
 40
0.0
  9
$LOFTPARAM
 70
     7
  9
$LOFTNORMALS
280
     1
  9
$LATITUDE
 40
37.795
  9
$LONGITUDE
 40
-122.394
  9
$NORTHDIRECTION
 40
0.0
  9
$TIMEZONE
 70
 -8000
  9
$LIGHTGLYPHDISPLAY
280
     1
  9
$TILEMODELIGHTSYNCH
280
     1
  9
$CMATERIAL
347
96
  9
$SOLIDHIST
280
     0
  9
$SHOWHIST
280
     1
  9
$DWFFRAME
280
     2
  9
$DGNFRAME
280
     0
  9
$REALWORLDSCALE
290
     1
  9
$INTERFERECOLOR
 62
     1
  9
$INTERFEREOBJVS
345
A3
  9
$INTERFEREVPVS
346
A0
  9
$CSHADOW
280
     0
  9
$SHADOWPLANELOCATION
 40
0.0
  0
ENDSEC
  0
SECTION
  2
CLASSES
  0
CLASS
  1
ACDBDICTIONARYWDFLT
  2
AcDbDictionaryWithDefault
  3
ObjectDBX Classes
 90
        0
 91
        1
280
     0
281
     0
  0
CLASS
  1
DICTIONARYVAR
  2
AcDbDictionaryVar
  3
ObjectDBX Classes
 90
        0
 91
        9
280
     0
281
     0
  0
CLASS
  1
TABLESTYLE
  2
AcDbTableStyle
  3
ObjectDBX Classes
 90
     4095
 91
        1
280
     0
281
     0
  0
CLASS
  1
MATERIAL
  2
AcDbMaterial
  3
ObjectDBX Classes
 90
     1153
 91
        3
280
     0
281
     0
  0
CLASS
  1
VISUALSTYLE
  2
AcDbVisualStyle
  3
ObjectDBX Classes
 90
     4095
 91
       24
280
     0
281
     0
  0
CLASS
  1
SCALE
  2
AcDbScale
  3
ObjectDBX Classes
 90
     1153
 91
       33
280
     0
281
     0
  0
CLASS
  1
MLEADERSTYLE
  2
AcDbMLeaderStyle
  3
ACDB_MLEADERSTYLE_CLASS
 90
     4095
 91
        2
280
     0
281
     0
  0
CLASS
  1
CELLSTYLEMAP
  2
AcDbCellStyleMap
  3
ObjectDBX Classes
 90
     1152
 91
        1
280
     0
281
     0
  0
CLASS
  1
EXACXREFPANELOBJECT
  2
ExAcXREFPanelObject
  3
EXAC_ESW
 90
     1025
 91
        0
280
     0
281
     0
  0
CLASS
  1
NPOCOLLECTION
  2
AcDbImpNonPersistentObjectsCollection
  3
ObjectDBX Classes
 90
     1153
 91
        0
280
     0
281
     0
  0
CLASS
  1
LAYER_INDEX
  2
AcDbLayerIndex
  3
ObjectDBX Classes
 90
        0
 91
        0
280
     0
281
     0
  0
CLASS
  1
SPATIAL_INDEX
  2
AcDbSpatialIndex
  3
ObjectDBX Classes
 90
        0
 91
        0
280
     0
281
     0
  0
CLASS
  1
IDBUFFER
  2
AcDbIdBuffer
  3
ObjectDBX Classes
 90
        0
 91
        0
280
     0
281
     0
  0
CLASS
  1
ACDBSECTIONVIEWSTYLE
  2
AcDbSectionViewStyle
  3
ObjectDBX Classes
 90
     1025
 91
        1
280
     0
281
     0
  0
CLASS
  1
ACDBDETAILVIEWSTYLE
  2
AcDbDetailViewStyle
  3
ObjectDBX Classes
 90
     1025
 91
        1
280
     0
281
     0
  0
CLASS
  1
PDFDEFINITION
  2
AcDbPdfDefinition
  3
ObjectDBX Classes
 90
     1153
 91
        1
280
     0
281
     0
  0
CLASS
  1
PDFUNDERLAY
  2
AcDbPdfReference
  3
ObjectDBX Classes
 90
     4095
 91
        1
280
     0
281
     1
  0
CLASS
  1
RASTERVARIABLES
  2
AcDbRasterVariables
  3
ISM
 90
        0
 91
        1
280
     0
281
     0
  0
CLASS
  1
DIMASSOC
  2
AcDbDimAssoc
  3
"AcDbDimAssoc|Product Desc:     AcDim ARX App For Dimension|Company:          Autodesk, Inc.|WEB Address:      www.autodesk.com"
 90
        0
 91
       10
280
     0
281
     0
  0
CLASS
  1
ACDB_ALDIMOBJECTCONTEXTDATA_CLASS
  2
AcDbAlignedDimensionObjectContextData
  3
ObjectDBX Classes
 90
     1153
 91
        1
280
     0
281
     0
  0
ENDSEC
  0
SECTION
  2
TABLES
  0
TABLE
  2
VPORT
  5
8
330
0
100
AcDbSymbolTable
 70
     1
  0
VPORT
  5
94
330
8
100
AcDbSymbolTableRecord
100
AcDbViewportTableRecord
  2
*Active
 70
     0
 10
0.0
 20
0.0
 11
1.0
 21
1.0
 12
98.32317228394774
 22
39.34677667674011
 13
0.0
 23
0.0
 14
0.5
 24
0.5
 15
0.5
 25
0.5
 16
0.0
 26
0.0
 36
1.0
 17
0.0
 27
0.0
 37
0.0
 40
189.9132571531015
 41
1.436619718309859
 42
50.0
 43
0.0
 44
0.0
 50
0.0
 51
0.0
 71
     0
 72
  1000
 73
     1
 74
     3
 75
     0
 76
     1
 77
     0
 78
     0
281
     0
 65
     1
110
0.0
120
0.0
130
0.0
111
1.0
121
0.0
131
0.0
112
0.0
122
1.0
132
0.0
 79
     0
146
0.0
348
9F
 60
     3
 61
     5
292
     1
282
     1
141
0.0
142
0.0
 63
   250
421
  3355443
1001
ACAD_NAV_VCDISPLAY
1070
     3
  0
ENDTAB
  0
TABLE
  2
LTYPE
  5
5
330
0
100
AcDbSymbolTable
 70
     2
  0
LTYPE
  5
14
330
5
100
AcDbSymbolTableRecord
100
AcDbLinetypeTableRecord
  2
ByBlock
 70
     0
  3

 72
    65
 73
     0
 40
0.0
  0
LTYPE
  5
15
330
5
100
AcDbSymbolTableRecord
100
AcDbLinetypeTableRecord
  2
ByLayer
 70
     0
  3

 72
    65
 73
     0
 40
0.0
  0
LTYPE
  5
16
330
5
100
AcDbSymbolTableRecord
100
AcDbLinetypeTableRecord
  2
Continuous
 70
     0
  3
Solid line
 72
    65
 73
     0
 40
0.0
  0
ENDTAB
  0
TABLE
  2
LAYER
  5
2
102
{ACAD_XDICTIONARY
360
18E
102
}
330
0
100
AcDbSymbolTable
 70
     2
  0
LAYER
  5
10
102
{ACAD_XDICTIONARY
360
E6
102
}
330
2
100
AcDbSymbolTableRecord
100
AcDbLayerTableRecord
  2
0
 70
     0
 62
     7
  6
Continuous
370
    -3
390
F
347
98
348
0
  0
LAYER
  5
2F3
330
2
100
AcDbSymbolTableRecord
100
AcDbLayerTableRecord
  2
Defpoints
 70
     0
 62
     7
  6
Continuous
290
     0
370
    -3
390
F
347
98
348
0
  0
ENDTAB
  0
TABLE
  2
STYLE
  5
3
330
0
100
AcDbSymbolTable
 70
     2
  0
STYLE
  5
11
330
3
100
AcDbSymbolTableRecord
100
AcDbTextStyleTableRecord
  2
Standard
 70
     0
 40
0.0
 41
1.0
 50
0.0
 71
     0
 42
0.2
  3
Arial.ttf
  4

1001
ACAD
1000
Arial
1071
       34
  0
STYLE
  5
DC
330
3
100
AcDbSymbolTableRecord
100
AcDbTextStyleTableRecord
  2
Annotative
 70
     0
 40
0.0
 41
1.0
 50
0.0
 71
     0
 42
0.2
  3
Arial.ttf
  4

1001
AcadAnnotative
1000
AnnotativeData
1002
{
1070
     1
1070
     1
1002
}
1001
ACAD
1000
Arial
1071
       34
  0
ENDTAB
  0
TABLE
  2
VIEW
  5
6
330
0
100
AcDbSymbolTable
 70
     4
  0
ENDTAB
  0
TABLE
  2
UCS
  5
7
330
0
100
AcDbSymbolTable
 70
     0
  0
ENDTAB
  0
TABLE
  2
APPID
  5
9
330
0
100
AcDbSymbolTable
 70
    10
  0
APPID
  5
12
330
9
100
AcDbSymbolTableRecord
100
AcDbRegAppTableRecord
  2
ACAD
 70
     0
  0
APPID
  5
DD
330
9
100
AcDbSymbolTableRecord
100
AcDbRegAppTableRecord
  2
AcadAnnoPO
 70
     0
  0
APPID
  5
DE
330
9
100
AcDbSymbolTableRecord
100
AcDbRegAppTableRecord
  2
AcadAnnotative
 70
     0
  0
APPID
  5
DF
330
9
100
AcDbSymbolTableRecord
100
AcDbRegAppTableRecord
  2
ACAD_DSTYLE_DIMJAG
 70
     0
  0
APPID
  5
E0
330
9
100
AcDbSymbolTableRecord
100
AcDbRegAppTableRecord
  2
ACAD_DSTYLE_DIMTALN
 70
     0
  0
APPID
  5
107
330
9
100
AcDbSymbolTableRecord
100
AcDbRegAppTableRecord
  2
ACAD_MLEADERVER
 70
     0
  0
APPID
  5
1A6
330
9
100
AcDbSymbolTableRecord
100
AcDbRegAppTableRecord
  2
ACAD_NAV_VCDISPLAY
 70
     0
  0
APPID
  5
1E0
330
9
100
AcDbSymbolTableRecord
100
AcDbRegAppTableRecord
  2
AdeskUnderlayLayerOverrideData
 70
     0
  0
APPID
  5
235
330
9
100
AcDbSymbolTableRecord
100
AcDbRegAppTableRecord
  2
ACAD_EXEMPT_FROM_CAD_STANDARDS
 70
     0
  0
APPID
  5
2F1
330
9
100
AcDbSymbolTableRecord
100
AcDbRegAppTableRecord
  2
ACAD_PSEXT
 70
     0
  0
ENDTAB
  0
TABLE
  2
DIMSTYLE
  5
A
330
0
100
AcDbSymbolTable
 70
     3
100
AcDbDimStyleTable
 71
     2
340
27
340
E1
  0
DIMSTYLE
105
27
102
{ACAD_REACTORS
330
30D
330
37D
330
3BB
330
3A1
330
3E9
330
40D
330
431
330
2F2
330
459
330
47D
102
}
330
A
100
AcDbSymbolTableRecord
100
AcDbDimStyleTableRecord
  2
Standard
 70
     0
340
11
  0
DIMSTYLE
105
E1
330
A
100
AcDbSymbolTableRecord
100
AcDbDimStyleTableRecord
  2
Annotative
 70
     0
 40
0.0
340
11
1001
AcadAnnotative
1000
AnnotativeData
1002
{
1070
     1
1070
     1
1002
}
1001
ACAD_DSTYLE_DIMJAG
1070
   388
1040
1.5
1001
ACAD_DSTYLE_DIMTALN
1070
   392
1070
     0
  0
ENDTAB
  0
TABLE
  2
BLOCK_RECORD
  5
1
330
0
100
AcDbSymbolTable
 70
    13
  0
BLOCK_RECORD
  5
1F
102
{ACAD_XDICTIONARY
360
15D
102
}
330
1
100
AcDbSymbolTableRecord
100
AcDbBlockTableRecord
  2
*Model_Space
340
22
 70
     0
280
     1
281
     0
  0
BLOCK_RECORD
  5
58
330
1
100
AcDbSymbolTableRecord
100
AcDbBlockTableRecord
  2
*Paper_Space
340
59
 70
     0
280
     1
281
     0
  0
BLOCK_RECORD
  5
5D
330
1
100
AcDbSymbolTableRecord
100
AcDbBlockTableRecord
  2
*Paper_Space0
340
5E
 70
     0
280
     1
281
     0
  0
BLOCK_RECORD
  5
2F4
330
1
100
AcDbSymbolTableRecord
100
AcDbBlockTableRecord
  2
*D2
340
0
 70
     0
280
     1
281
     0
  0
BLOCK_RECORD
  5
30E
330
1
100
AcDbSymbolTableRecord
100
AcDbBlockTableRecord
  2
*D3
340
0
 70
     0
280
     1
281
     0
  0
BLOCK_RECORD
  5
359
330
1
100
AcDbSymbolTableRecord
100
AcDbBlockTableRecord
  2
*D4
340
0
 70
     0
280
     1
281
     0
  0
BLOCK_RECORD
  5
37E
330
1
100
AcDbSymbolTableRecord
100
AcDbBlockTableRecord
  2
*D5
340
0
 70
     0
280
     1
281
     0
  0
BLOCK_RECORD
  5
3A2
330
1
100
AcDbSymbolTableRecord
100
AcDbBlockTableRecord
  2
*D6
340
0
 70
     0
280
     1
281
     0
  0
BLOCK_RECORD
  5
3BC
330
1
100
AcDbSymbolTableRecord
100
AcDbBlockTableRecord
  2
*D7
340
0
 70
     0
280
     1
281
     0
  0
BLOCK_RECORD
  5
3EA
330
1
100
AcDbSymbolTableRecord
100
AcDbBlockTableRecord
  2
*D8
340
0
 70
     0
280
     1
281
     0
  0
BLOCK_RECORD
  5
40E
330
1
100
AcDbSymbolTableRecord
100
AcDbBlockTableRecord
  2
*D9
340
0
 70
     0
280
     1
281
     0
  0
BLOCK_RECORD
  5
432
330
1
100
AcDbSymbolTableRecord
100
AcDbBlockTableRecord
  2
*D10
340
0
 70
     0
280
     1
281
     0
  0
BLOCK_RECORD
  5
45A
330
1
100
AcDbSymbolTableRecord
100
AcDbBlockTableRecord
  2
*D11
340
0
 70
     0
280
     1
281
     0
  0
BLOCK_RECORD
  5
47E
330
1
100
AcDbSymbolTableRecord
100
AcDbBlockTableRecord
  2
*D12
340
0
 70
     0
280
     1
281
     0
  0
ENDTAB
  0
ENDSEC
  0
SECTION
  2
BLOCKS
  0
BLOCK
  5
20
330
1F
100
AcDbEntity
  8
0
100
AcDbBlockBegin
  2
*Model_Space
 70
     0
 10
0.0
 20
0.0
 30
0.0
  3
*Model_Space
  1

  0
ENDBLK
  5
21
330
1F
100
AcDbEntity
  8
0
100
AcDbBlockEnd
  0
BLOCK
  5
5A
330
58
100
AcDbEntity
 67
     1
  8
0
100
AcDbBlockBegin
  2
*Paper_Space
 70
     0
 10
0.0
 20
0.0
 30
0.0
  3
*Paper_Space
  1

  0
ENDBLK
  5
5B
330
58
100
AcDbEntity
 67
     1
  8
0
100
AcDbBlockEnd
  0
BLOCK
  5
5F
330
5D
100
AcDbEntity
 67
     1
  8
0
100
AcDbBlockBegin
  2
*Paper_Space0
 70
     0
 10
0.0
 20
0.0
 30
0.0
  3
*Paper_Space0
  1

  0
ENDBLK
  5
60
330
5D
100
AcDbEntity
 67
     1
  8
0
100
AcDbBlockEnd
  0
BLOCK
  5
2F5
330
2F4
100
AcDbEntity
  8
0
100
AcDbBlockBegin
  2
*D2
 70
     1
 10
0.0
 20
0.0
 30
0.0
  3
*D2
  1

  0
LINE
  5
44F
330
2F4
100
AcDbEntity
  8
0
 62
     0
440
 16777216
370
    -2
100
AcDbLine
 10
14.34468134147282
 20
114.4005804248229
 30
0.0
 11
14.34468134147282
 21
125.908614920352
 31
0.0
  0
LINE
  5
450
330
2F4
100
AcDbEntity
  8
0
 62
     0
440
 16777216
370
    -2
100
AcDbLine
 10
172.4590288181359
 20
114.4005804248229
 30
0.0
 11
172.4590288181359
 21
125.908614920352
 31
0.0
  0
LINE
  5
451
330
2F4
100
AcDbEntity
  8
0
 62
     0
440
 16777216
370
    -2
100
AcDbLine
 10
16.14468134147282
 20
124.108614920352
 30
0.0
 11
89.72327390654381
 21
124.108614920352
 31
0.0
  0
LINE
  5
452
330
2F4
100
AcDbEntity
  8
0
 62
     0
440
 16777216
370
    -2
100
AcDbLine
 10
170.6590288181359
 20
124.108614920352
 30
0.0
 11
97.08043625306494
 21
124.108614920352
 31
0.0
  0
SOLID
  5
453
330
2F4
100
AcDbEntity
  8
0
 62
     0
440
 16777216
100
AcDbTrace
 10
16.14468134147282
 20
124.408614920352
 30
0.0
 11
16.14468134147282
 21
123.808614920352
 31
0.0
 12
14.34468134147282
 22
124.108614920352
 32
0.0
 13
14.34468134147282
 23
124.108614920352
 33
0.0
  0
SOLID
  5
454
330
2F4
100
AcDbEntity
  8
0
 62
     0
440
 16777216
100
AcDbTrace
 10
170.6590288181359
 20
124.408614920352
 30
0.0
 11
170.6590288181359
 21
123.808614920352
 31
0.0
 12
172.4590288181359
 22
124.108614920352
 32
0.0
 13
172.4590288181359
 23
124.108614920352
 33
0.0
  0
MTEXT
  5
455
330
2F4
100
AcDbEntity
  8
0
 62
     0
440
 16777216
100
AcDbMText
 10
93.40185507980438
 20
124.108614920352
 30
0.0
 40
1.799999999999999
 41
0.0
 46
0.0
 71
     5
 72
     1
  1
\A1;158.1
 73
     1
 44
1.0
  0
POINT
  5
456
330
2F4
100
AcDbEntity
  8
Defpoints
 62
     0
440
 16777216
100
AcDbPoint
 10
14.34468134147282
 20
113.7755804248228
 30
0.0
  0
POINT
  5
457
330
2F4
100
AcDbEntity
  8
Defpoints
 62
     0
440
 16777216
100
AcDbPoint
 10
172.4590288181359
 20
113.7755804248228
 30
0.0
  0
POINT
  5
458
330
2F4
100
AcDbEntity
  8
Defpoints
 62
     0
440
 16777216
100
AcDbPoint
 10
172.4590288181359
 20
124.108614920352
 30
0.0
  0
ENDBLK
  5
2F6
330
2F4
100
AcDbEntity
  8
0
100
AcDbBlockEnd
  0
BLOCK
  5
30F
330
30E
100
AcDbEntity
  8
0
100
AcDbBlockBegin
  2
*D3
 70
     1
 10
0.0
 20
0.0
 30
0.0
  3
*D3
  1

  0
LINE
  5
34F
330
30E
100
AcDbEntity
  8
0
 62
     0
440
 16777216
370
    -2
100
AcDbLine
 10
173.0840288181359
 20
113.7755804248228
 30
0.0
 11
187.4014455929544
 21
113.7755804248228
 31
0.0
  0
LINE
  5
350
330
30E
100
AcDbEntity
  8
0
 62
     0
440
 16777216
370
    -2
100
AcDbLine
 10
173.0840288181359
 20
-13.2243455670566
 30
0.0
 11
187.4014455929544
 21
-13.2243455670566
 31
0.0
  0
LINE
  5
351
330
30E
100
AcDbEntity
  8
0
 62
     0
440
 16777216
370
    -2
100
AcDbLine
 10
185.6014455929544
 20
111.9755804248228
 30
0.0
 11
185.6014455929543
 21
52.09464880678218
 31
0.0
  0
LINE
  5
352
330
30E
100
AcDbEntity
  8
0
 62
     0
440
 16777216
370
    -2
100
AcDbLine
 10
185.6014455929543
 20
-11.4243455670566
 30
0.0
 11
185.6014455929543
 21
48.45658605098409
 31
0.0
  0
SOLID
  5
353
330
30E
100
AcDbEntity
  8
0
 62
     0
440
 16777216
100
AcDbTrace
 10
185.3014455929544
 20
111.9755804248228
 30
0.0
 11
185.9014455929544
 21
111.9755804248228
 31
0.0
 12
185.6014455929544
 22
113.7755804248228
 32
0.0
 13
185.6014455929544
 23
113.7755804248228
 33
0.0
  0
SOLID
  5
354
330
30E
100
AcDbEntity
  8
0
 62
     0
440
 16777216
100
AcDbTrace
 10
185.3014455929543
 20
-11.4243455670566
 30
0.0
 11
185.9014455929544
 21
-11.4243455670566
 31
0.0
 12
185.6014455929543
 22
-13.2243455670566
 32
0.0
 13
185.6014455929543
 23
-13.2243455670566
 33
0.0
  0
MTEXT
  5
355
330
30E
100
AcDbEntity
  8
0
 62
     0
440
 16777216
100
AcDbMText
 10
185.6014455929543
 20
50.27561742888316
 30
0.0
 40
1.799999999999999
 41
0.0
 46
0.0
 71
     5
 72
     1
  1
\A1;126.9999
 73
     1
 44
1.0
  0
POINT
  5
356
330
30E
100
AcDbEntity
  8
Defpoints
 62
     0
440
 16777216
100
AcDbPoint
 10
172.4590288181359
 20
113.7755804248228
 30
0.0
  0
POINT
  5
357
330
30E
100
AcDbEntity
  8
Defpoints
 62
     0
440
 16777216
100
AcDbPoint
 10
172.4590288181359
 20
-13.2243455670566
 30
0.0
  0
POINT
  5
358
330
30E
100
AcDbEntity
  8
Defpoints
 62
     0
440
 16777216
100
AcDbPoint
 10
185.6014455929543
 20
-13.2243455670566
 30
0.0
  0
ENDBLK
  5
310
330
30E
100
AcDbEntity
  8
0
100
AcDbBlockEnd
  0
BLOCK
  5
35A
330
359
100
AcDbEntity
  8
0
100
AcDbBlockBegin
  2
*D4
 70
     1
 10
0.0
 20
0.0
 30
0.0
  3
*D4
  1

  0
LINE
  5
373
330
359
100
AcDbEntity
  8
0
 62
     0
440
 16777216
370
    -2
100
AcDbLine
 10
173.0840288181359
 20
113.7755804248228
 30
0.0
 11
187.4014455929544
 21
113.7755804248228
 31
0.0
  0
LINE
  5
374
330
359
100
AcDbEntity
  8
0
 62
     0
440
 16777216
370
    -2
100
AcDbLine
 10
173.0840288181359
 20
-13.2243455670566
 30
0.0
 11
187.4014455929544
 21
-13.2243455670566
 31
0.0
  0
LINE
  5
375
330
359
100
AcDbEntity
  8
0
 62
     0
440
 16777216
370
    -2
100
AcDbLine
 10
185.6014455929544
 20
111.9755804248228
 30
0.0
 11
185.6014455929543
 21
52.09464880678218
 31
0.0
  0
LINE
  5
376
330
359
100
AcDbEntity
  8
0
 62
     0
440
 16777216
370
    -2
100
AcDbLine
 10
185.6014455929543
 20
-11.4243455670566
 30
0.0
 11
185.6014455929543
 21
48.45658605098409
 31
0.0
  0
SOLID
  5
377
330
359
100
AcDbEntity
  8
0
 62
     0
440
 16777216
100
AcDbTrace
 10
185.3014455929544
 20
111.9755804248228
 30
0.0
 11
185.9014455929544
 21
111.9755804248228
 31
0.0
 12
185.6014455929544
 22
113.7755804248228
 32
0.0
 13
185.6014455929544
 23
113.7755804248228
 33
0.0
  0
SOLID
  5
378
330
359
100
AcDbEntity
  8
0
 62
     0
440
 16777216
100
AcDbTrace
 10
185.3014455929543
 20
-11.4243455670566
 30
0.0
 11
185.9014455929544
 21
-11.4243455670566
 31
0.0
 12
185.6014455929543
 22
-13.2243455670566
 32
0.0
 13
185.6014455929543
 23
-13.2243455670566
 33
0.0
  0
MTEXT
  5
379
330
359
100
AcDbEntity
  8
0
 62
     0
440
 16777216
100
AcDbMText
 10
185.6014455929543
 20
50.27561742888316
 30
0.0
 40
1.799999999999999
 41
0.0
 46
0.0
 71
     5
 72
     1
  1
\A1;127.0
 73
     1
 44
1.0
  0
POINT
  5
37A
330
359
100
AcDbEntity
  8
Defpoints
 62
     0
440
 16777216
100
AcDbPoint
 10
172.4590288181359
 20
113.7755804248228
 30
0.0
  0
POINT
  5
37B
330
359
100
AcDbEntity
  8
Defpoints
 62
     0
440
 16777216
100
AcDbPoint
 10
172.4590288181359
 20
-13.2243455670566
 30
0.0
  0
POINT
  5
37C
330
359
100
AcDbEntity
  8
Defpoints
 62
     0
440
 16777216
100
AcDbPoint
 10
185.6014455929543
 20
-13.2243455670566
 30
0.0
  0
ENDBLK
  5
35B
330
359
100
AcDbEntity
  8
0
100
AcDbBlockEnd
  0
BLOCK
  5
37F
330
37E
100
AcDbEntity
  8
0
100
AcDbBlockBegin
  2
*D5
 70
     1
 10
0.0
 20
0.0
 30
0.0
  3
*D5
  1

  0
LINE
  5
397
330
37E
100
AcDbEntity
  8
0
 62
     0
440
 16777216
370
    -2
100
AcDbLine
 10
172.4590288181359
 20
-13.8493455670566
 30
0.0
 11
172.4590288181359
 21
-27.31413762899768
 31
0.0
  0
LINE
  5
398
330
37E
100
AcDbEntity
  8
0
 62
     0
440
 16777216
370
    -2
100
AcDbLine
 10
143.2883925547602
 20
-5.593619396136325
 30
0.0
 11
143.2883925547602
 21
-27.31413762899768
 31
0.0
  0
LINE
  5
399
330
37E
100
AcDbEntity
  8
0
 62
     0
440
 16777216
370
    -2
100
AcDbLine
 10
170.6590288181359
 20
-25.51413762899767
 30
0.0
 11
161.1176397451111
 21
-25.51413762899767
 31
0.0
  0
LINE
  5
39A
330
37E
100
AcDbEntity
  8
0
 62
     0
440
 16777216
370
    -2
100
AcDbLine
 10
145.0883925547602
 20
-25.51413762899767
 30
0.0
 11
154.629781627785
 21
-25.51413762899767
 31
0.0
  0
SOLID
  5
39B
330
37E
100
AcDbEntity
  8
0
 62
     0
440
 16777216
100
AcDbTrace
 10
170.6590288181359
 20
-25.21413762899767
 30
0.0
 11
170.6590288181359
 21
-25.81413762899768
 31
0.0
 12
172.4590288181359
 22
-25.51413762899767
 32
0.0
 13
172.4590288181359
 23
-25.51413762899767
 33
0.0
  0
SOLID
  5
39C
330
37E
100
AcDbEntity
  8
0
 62
     0
440
 16777216
100
AcDbTrace
 10
145.0883925547602
 20
-25.21413762899767
 30
0.0
 11
145.0883925547602
 21
-25.81413762899768
 31
0.0
 12
143.2883925547602
 22
-25.51413762899767
 32
0.0
 13
143.2883925547602
 23
-25.51413762899767
 33
0.0
  0
MTEXT
  5
39D
330
37E
100
AcDbEntity
  8
0
 62
     0
440
 16777216
100
AcDbMText
 10
157.8737106864481
 20
-25.51413762899767
 30
0.0
 40
1.799999999999999
 41
0.0
 46
0.0
 71
     5
 72
     1
  1
\A1;29.2
 73
     1
 44
1.0
  0
POINT
  5
39E
330
37E
100
AcDbEntity
  8
Defpoints
 62
     0
440
 16777216
100
AcDbPoint
 10
172.4590288181359
 20
-13.2243455670566
 30
0.0
  0
POINT
  5
39F
330
37E
100
AcDbEntity
  8
Defpoints
 62
     0
440
 16777216
100
AcDbPoint
 10
143.2883925547602
 20
-4.968619396136325
 30
0.0
  0
POINT
  5
3A0
330
37E
100
AcDbEntity
  8
Defpoints
 62
     0
440
 16777216
100
AcDbPoint
 10
143.2883925547602
 20
-25.51413762899767
 30
0.0
  0
ENDBLK
  5
380
330
37E
100
AcDbEntity
  8
0
100
AcDbBlockEnd
  0
BLOCK
  5
3A3
330
3A2
100
AcDbEntity
  8
0
100
AcDbBlockBegin
  2
*D6
 70
     1
 10
0.0
 20
0.0
 30
0.0
  3
*D6
  1

  0
LINE
  5
3DF
330
3A2
100
AcDbEntity
  8
0
 62
     0
440
 16777216
370
    -2
100
AcDbLine
 10
14.34468134147282
 20
-13.8493455670566
 30
0.0
 11
14.34468134147282
 21
-27.31413762899766
 31
0.0
  0
LINE
  5
3E0
330
3A2
100
AcDbEntity
  8
0
 62
     0
440
 16777216
370
    -2
100
AcDbLine
 10
43.93244202816216
 20
-6.07920371300991
 30
0.0
 11
43.93244202816216
 21
-27.31413762899766
 31
0.0
  0
LINE
  5
3E1
330
3A2
100
AcDbEntity
  8
0
 62
     0
440
 16777216
370
    -2
100
AcDbLine
 10
16.14468134147282
 20
-25.51413762899767
 30
0.0
 11
25.88603781032909
 21
-25.51413762899767
 31
0.0
  0
LINE
  5
3E2
330
3A2
100
AcDbEntity
  8
0
 62
     0
440
 16777216
370
    -2
100
AcDbLine
 10
42.13244202816216
 20
-25.51413762899767
 30
0.0
 11
32.3910855593059
 21
-25.51413762899767
 31
0.0
  0
SOLID
  5
3E3
330
3A2
100
AcDbEntity
  8
0
 62
     0
440
 16777216
100
AcDbTrace
 10
16.14468134147282
 20
-25.21413762899766
 30
0.0
 11
16.14468134147282
 21
-25.81413762899766
 31
0.0
 12
14.34468134147282
 22
-25.51413762899767
 32
0.0
 13
14.34468134147282
 23
-25.51413762899767
 33
0.0
  0
SOLID
  5
3E4
330
3A2
100
AcDbEntity
  8
0
 62
     0
440
 16777216
100
AcDbTrace
 10
42.13244202816216
 20
-25.21413762899766
 30
0.0
 11
42.13244202816216
 21
-25.81413762899766
 31
0.0
 12
43.93244202816216
 22
-25.51413762899767
 32
0.0
 13
43.93244202816216
 23
-25.51413762899767
 33
0.0
  0
MTEXT
  5
3E5
330
3A2
100
AcDbEntity
  8
0
 62
     0
440
 16777216
100
AcDbMText
 10
29.1385616848175
 20
-25.51413762899767
 30
0.0
 40
1.799999999999999
 41
0.0
 46
0.0
 71
     5
 72
     1
  1
\A1;29.6
 73
     1
 44
1.0
  0
POINT
  5
3E6
330
3A2
100
AcDbEntity
  8
Defpoints
 62
     0
440
 16777216
100
AcDbPoint
 10
14.34468134147282
 20
-13.2243455670566
 30
0.0
  0
POINT
  5
3E7
330
3A2
100
AcDbEntity
  8
Defpoints
 62
     0
440
 16777216
100
AcDbPoint
 10
43.93244202816216
 20
-5.45420371300991
 30
0.0
  0
POINT
  5
3E8
330
3A2
100
AcDbEntity
  8
Defpoints
 62
     0
440
 16777216
100
AcDbPoint
 10
43.93244202816216
 20
-25.51413762899767
 30
0.0
  0
ENDBLK
  5
3A4
330
3A2
100
AcDbEntity
  8
0
100
AcDbBlockEnd
  0
BLOCK
  5
3BD
330
3BC
100
AcDbEntity
  8
0
100
AcDbBlockBegin
  2
*D7
 70
     1
 10
0.0
 20
0.0
 30
0.0
  3
*D7
  1

  0
LINE
  5
3D5
330
3BC
100
AcDbEntity
  8
0
 62
     0
440
 16777216
370
    -2
100
AcDbLine
 10
43.93244202816216
 20
-6.07920371300991
 30
0.0
 11
43.93244202816216
 21
-27.31413762899768
 31
0.0
  0
LINE
  5
3D6
330
3BC
100
AcDbEntity
  8
0
 62
     0
440
 16777216
370
    -2
100
AcDbLine
 10
143.2883925547602
 20
-5.593619396136325
 30
0.0
 11
143.2883925547602
 21
-27.31413762899768
 31
0.0
  0
LINE
  5
3D7
330
3BC
100
AcDbEntity
  8
0
 62
     0
440
 16777216
370
    -2
100
AcDbLine
 10
45.73244202816216
 20
-25.51413762899767
 30
0.0
 11
90.37631087945573
 21
-25.51413762899767
 31
0.0
  0
LINE
  5
3D8
330
3BC
100
AcDbEntity
  8
0
 62
     0
440
 16777216
370
    -2
100
AcDbLine
 10
141.4883925547602
 20
-25.51413762899767
 30
0.0
 11
96.84452370346665
 21
-25.51413762899767
 31
0.0
  0
SOLID
  5
3D9
330
3BC
100
AcDbEntity
  8
0
 62
     0
440
 16777216
100
AcDbTrace
 10
45.73244202816216
 20
-25.21413762899767
 30
0.0
 11
45.73244202816216
 21
-25.81413762899768
 31
0.0
 12
43.93244202816216
 22
-25.51413762899767
 32
0.0
 13
43.93244202816216
 23
-25.51413762899767
 33
0.0
  0
SOLID
  5
3DA
330
3BC
100
AcDbEntity
  8
0
 62
     0
440
 16777216
100
AcDbTrace
 10
141.4883925547602
 20
-25.21413762899767
 30
0.0
 11
141.4883925547602
 21
-25.81413762899768
 31
0.0
 12
143.2883925547602
 22
-25.51413762899767
 32
0.0
 13
143.2883925547602
 23
-25.51413762899767
 33
0.0
  0
MTEXT
  5
3DB
330
3BC
100
AcDbEntity
  8
0
 62
     0
440
 16777216
100
AcDbMText
 10
93.61041729146119
 20
-25.51413762899767
 30
0.0
 40
1.799999999999999
 41
0.0
 46
0.0
 71
     5
 72
     1
  1
\A1;99.4
 73
     1
 44
1.0
  0
POINT
  5
3DC
330
3BC
100
AcDbEntity
  8
Defpoints
 62
     0
440
 16777216
100
AcDbPoint
 10
43.93244202816216
 20
-5.45420371300991
 30
0.0
  0
POINT
  5
3DD
330
3BC
100
AcDbEntity
  8
Defpoints
 62
     0
440
 16777216
100
AcDbPoint
 10
143.2883925547602
 20
-4.968619396136325
 30
0.0
  0
POINT
  5
3DE
330
3BC
100
AcDbEntity
  8
Defpoints
 62
     0
440
 16777216
100
AcDbPoint
 10
143.2883925547602
 20
-25.51413762899767
 30
0.0
  0
ENDBLK
  5
3BE
330
3BC
100
AcDbEntity
  8
0
100
AcDbBlockEnd
  0
BLOCK
  5
3EB
330
3EA
100
AcDbEntity
  8
0
100
AcDbBlockBegin
  2
*D8
 70
     1
 10
0.0
 20
0.0
 30
0.0
  3
*D8
  1

  0
LINE
  5
403
330
3EA
100
AcDbEntity
  8
0
 62
     0
440
 16777216
370
    -2
100
AcDbLine
 10
77.20965179378999
 20
6.722856141583438
 30
0.0
 11
77.20965179378999
 21
19.0527398945877
 31
0.0
  0
LINE
  5
404
330
3EA
100
AcDbEntity
  8
0
 62
     0
440
 16777216
370
    -2
100
AcDbLine
 10
110.0798143214393
 20
6.789357647735112
 30
0.0
 11
110.0798143214393
 21
19.0527398945877
 31
0.0
  0
LINE
  5
405
330
3EA
100
AcDbEntity
  8
0
 62
     0
440
 16777216
370
    -2
100
AcDbLine
 10
79.00965179378999
 20
17.2527398945877
 30
0.0
 11
90.40571532228041
 21
17.2527398945877
 31
0.0
  0
LINE
  5
406
330
3EA
100
AcDbEntity
  8
0
 62
     0
440
 16777216
370
    -2
100
AcDbLine
 10
108.2798143214393
 20
17.2527398945877
 30
0.0
 11
96.88375079294889
 21
17.2527398945877
 31
0.0
  0
SOLID
  5
407
330
3EA
100
AcDbEntity
  8
0
 62
     0
440
 16777216
100
AcDbTrace
 10
79.00965179378999
 20
17.5527398945877
 30
0.0
 11
79.00965179378999
 21
16.9527398945877
 31
0.0
 12
77.20965179378999
 22
17.2527398945877
 32
0.0
 13
77.20965179378999
 23
17.2527398945877
 33
0.0
  0
SOLID
  5
408
330
3EA
100
AcDbEntity
  8
0
 62
     0
440
 16777216
100
AcDbTrace
 10
108.2798143214393
 20
17.5527398945877
 30
0.0
 11
108.2798143214393
 21
16.9527398945877
 31
0.0
 12
110.0798143214393
 22
17.2527398945877
 32
0.0
 13
110.0798143214393
 23
17.2527398945877
 33
0.0
  0
MTEXT
  5
409
330
3EA
100
AcDbEntity
  8
0
 62
     0
440
 16777216
100
AcDbMText
 10
93.64473305761464
 20
17.2527398945877
 30
0.0
 40
1.799999999999999
 41
0.0
 46
0.0
 71
     5
 72
     1
  1
\A1;32.9
 73
     1
 44
1.0
  0
POINT
  5
40A
330
3EA
100
AcDbEntity
  8
Defpoints
 62
     0
440
 16777216
100
AcDbPoint
 10
77.20965179378999
 20
6.097856141583438
 30
0.0
  0
POINT
  5
40B
330
3EA
100
AcDbEntity
  8
Defpoints
 62
     0
440
 16777216
100
AcDbPoint
 10
110.0798143214393
 20
6.164357647735112
 30
0.0
  0
POINT
  5
40C
330
3EA
100
AcDbEntity
  8
Defpoints
 62
     0
440
 16777216
100
AcDbPoint
 10
110.0798143214393
 20
17.2527398945877
 30
0.0
  0
ENDBLK
  5
3EC
330
3EA
100
AcDbEntity
  8
0
100
AcDbBlockEnd
  0
BLOCK
  5
40F
330
40E
100
AcDbEntity
  8
0
100
AcDbBlockBegin
  2
*D9
 70
     1
 10
0.0
 20
0.0
 30
0.0
  3
*D9
  1

  0
LINE
  5
427
330
40E
100
AcDbEntity
  8
0
 62
     0
440
 16777216
370
    -2
100
AcDbLine
 10
63.63182458955125
 20
103.7535018234756
 30
0.0
 11
63.63182458955125
 21
107.503412034287
 31
0.0
  0
LINE
  5
428
330
40E
100
AcDbEntity
  8
0
 62
     0
440
 16777216
370
    -2
100
AcDbLine
 10
66.10373815940056
 20
103.7365803655648
 30
0.0
 11
66.10373815940056
 21
107.503412034287
 31
0.0
  0
LINE
  5
429
330
40E
100
AcDbEntity
  8
0
 62
     0
440
 16777216
370
    -2
100
AcDbLine
 10
61.83182458955125
 20
105.703412034287
 30
0.0
 11
60.03182458955125
 21
105.703412034287
 31
0.0
  0
LINE
  5
42A
330
40E
100
AcDbEntity
  8
0
 62
     0
440
 16777216
370
    -2
100
AcDbLine
 10
67.90373815940056
 20
105.703412034287
 30
0.0
 11
69.70373815940056
 21
105.703412034287
 31
0.0
  0
SOLID
  5
42B
330
40E
100
AcDbEntity
  8
0
 62
     0
440
 16777216
100
AcDbTrace
 10
61.83182458955125
 20
106.003412034287
 30
0.0
 11
61.83182458955125
 21
105.403412034287
 31
0.0
 12
63.63182458955125
 22
105.703412034287
 32
0.0
 13
63.63182458955125
 23
105.703412034287
 33
0.0
  0
SOLID
  5
42C
330
40E
100
AcDbEntity
  8
0
 62
     0
440
 16777216
100
AcDbTrace
 10
67.90373815940056
 20
106.003412034287
 30
0.0
 11
67.90373815940056
 21
105.403412034287
 31
0.0
 12
66.10373815940056
 22
105.703412034287
 32
0.0
 13
66.10373815940056
 23
105.703412034287
 33
0.0
  0
MTEXT
  5
42D
330
40E
100
AcDbEntity
  8
0
 62
     0
440
 16777216
100
AcDbMText
 10
72.26437935994626
 20
105.703412034287
 30
0.0
 40
1.799999999999999
 41
0.0
 46
0.0
 71
     5
 72
     1
  1
\A1;2.5
 73
     1
 44
1.0
  0
POINT
  5
42E
330
40E
100
AcDbEntity
  8
Defpoints
 62
     0
440
 16777216
100
AcDbPoint
 10
63.63182458955125
 20
103.1285018234756
 30
0.0
  0
POINT
  5
42F
330
40E
100
AcDbEntity
  8
Defpoints
 62
     0
440
 16777216
100
AcDbPoint
 10
66.10373815940056
 20
103.1115803655648
 30
0.0
  0
POINT
  5
430
330
40E
100
AcDbEntity
  8
Defpoints
 62
     0
440
 16777216
100
AcDbPoint
 10
66.10373815940056
 20
105.703412034287
 30
0.0
  0
ENDBLK
  5
410
330
40E
100
AcDbEntity
  8
0
100
AcDbBlockEnd
  0
BLOCK
  5
433
330
432
100
AcDbEntity
  8
0
100
AcDbBlockBegin
  2
*D10
 70
     1
 10
0.0
 20
0.0
 30
0.0
  3
*D10
  1

  0
LINE
  5
447
330
432
100
AcDbEntity
  8
0
 62
     0
440
 16777216
370
    -2
100
AcDbLine
 10
51.61712096192596
 20
106.5426147908281
 30
0.0
 11
49.81712096192595
 21
106.5426147908281
 31
0.0
  0
LINE
  5
448
330
432
100
AcDbEntity
  8
0
 62
     0
440
 16777216
370
    -2
100
AcDbLine
 10
49.81712096192595
 20
106.5426147908281
 30
0.0
 11
49.16008439261889
 21
104.8668155944465
 31
0.0
  0
MTEXT
  5
449
330
432
100
AcDbEntity
  8
0
 62
     0
440
 16777216
100
AcDbMText
 10
55.01637062086182
 20
106.5426147908281
 30
0.0
 40
1.799999999999999
 41
0.0
 46
0.0
 71
     5
 72
     1
  1
\A1;R4.6
 73
     1
 44
1.0
  0
SOLID
  5
44A
330
432
100
AcDbEntity
  8
0
 62
     0
440
 16777216
100
AcDbTrace
 10
48.8807845265553
 20
104.976321689331
 30
0.0
 11
49.4393842586825
 21
104.757309499562
 31
0.0
 12
48.50304782331182
 22
103.1910163980649
 32
0.0
 13
48.50304782331182
 23
103.1910163980649
 33
0.0
  0
LINE
  5
44B
330
432
100
AcDbEntity
  8
0
 62
     0
440
 16777216
370
    -2
100
AcDbLine
 10
45.93495697052502
 20
98.93648104771187
 30
0.0
 11
47.73495697052502
 21
98.93648104771187
 31
0.0
  0
LINE
  5
44C
330
432
100
AcDbEntity
  8
0
 62
     0
440
 16777216
370
    -2
100
AcDbLine
 10
46.83495697052501
 20
98.03648104771184
 30
0.0
 11
46.83495697052502
 21
99.83648104771187
 31
0.0
  0
POINT
  5
44D
330
432
100
AcDbEntity
  8
Defpoints
 62
     0
440
 16777216
100
AcDbPoint
 10
48.50304782331182
 20
103.1910163980649
 30
0.0
  0
POINT
  5
44E
330
432
100
AcDbEntity
  8
Defpoints
 62
     0
440
 16777216
100
AcDbPoint
 10
46.83495697052502
 20
98.93648104771187
 30
0.0
  0
ENDBLK
  5
434
330
432
100
AcDbEntity
  8
0
100
AcDbBlockEnd
  0
BLOCK
  5
45B
330
45A
100
AcDbEntity
  8
0
100
AcDbBlockBegin
  2
*D11
 70
     1
 10
0.0
 20
0.0
 30
0.0
  3
*D11
  1

  0
LINE
  5
473
330
45A
100
AcDbEntity
  8
0
 62
     0
440
 16777216
370
    -2
100
AcDbLine
 10
26.27212302742354
 20
0.4662134195597221
 30
0.0
 11
21.08636810213165
 21
0.4662134195597236
 31
0.0
  0
LINE
  5
474
330
45A
100
AcDbEntity
  8
0
 62
     0
440
 16777216
370
    -2
100
AcDbLine
 10
26.27212302742354
 20
26.88453355764912
 30
0.0
 11
21.08636810213166
 21
26.88453355764913
 31
0.0
  0
LINE
  5
475
330
45A
100
AcDbEntity
  8
0
 62
     0
440
 16777216
370
    -2
100
AcDbLine
 10
22.88636810213165
 20
2.266213419559722
 30
0.0
 11
22.88636810213165
 21
11.85634211070538
 31
0.0
  0
LINE
  5
476
330
45A
100
AcDbEntity
  8
0
 62
     0
440
 16777216
370
    -2
100
AcDbLine
 10
22.88636810213166
 20
25.08453355764912
 30
0.0
 11
22.88636810213165
 21
15.49440486650347
 31
0.0
  0
SOLID
  5
477
330
45A
100
AcDbEntity
  8
0
 62
     0
440
 16777216
100
AcDbTrace
 10
22.58636810213165
 20
2.266213419559722
 30
0.0
 11
23.18636810213165
 21
2.266213419559722
 31
0.0
 12
22.88636810213165
 22
0.4662134195597229
 32
0.0
 13
22.88636810213165
 23
0.4662134195597229
 33
0.0
  0
SOLID
  5
478
330
45A
100
AcDbEntity
  8
0
 62
     0
440
 16777216
100
AcDbTrace
 10
22.58636810213165
 20
25.08453355764912
 30
0.0
 11
23.18636810213166
 21
25.08453355764912
 31
0.0
 12
22.88636810213166
 22
26.88453355764913
 32
0.0
 13
22.88636810213166
 23
26.88453355764913
 33
0.0
  0
MTEXT
  5
479
330
45A
100
AcDbEntity
  8
0
 62
     0
440
 16777216
100
AcDbMText
 10
22.88636810213165
 20
13.67537348860442
 30
0.0
 40
1.799999999999999
 41
0.0
 46
0.0
 71
     5
 72
     1
  1
\A1;26.4
 73
     1
 44
1.0
  0
POINT
  5
47A
330
45A
100
AcDbEntity
  8
Defpoints
 62
     0
440
 16777216
100
AcDbPoint
 10
26.89712302742354
 20
0.4662134195597219
 30
0.0
  0
POINT
  5
47B
330
45A
100
AcDbEntity
  8
Defpoints
 62
     0
440
 16777216
100
AcDbPoint
 10
26.89712302742354
 20
26.88453355764912
 30
0.0
  0
POINT
  5
47C
330
45A
100
AcDbEntity
  8
Defpoints
 62
     0
440
 16777216
100
AcDbPoint
 10
22.88636810213166
 20
26.88453355764913
 30
0.0
  0
ENDBLK
  5
45C
330
45A
100
AcDbEntity
  8
0
100
AcDbBlockEnd
  0
BLOCK
  5
47F
330
47E
100
AcDbEntity
  8
0
100
AcDbBlockBegin
  2
*D12
 70
     1
 10
0.0
 20
0.0
 30
0.0
  3
*D12
  1

  0
LINE
  5
493
330
47E
100
AcDbEntity
  8
0
 62
     0
440
 16777216
370
    -2
100
AcDbLine
 10
25.43617698002055
 20
38.07346333149418
 30
0.0
 11
23.63617698002055
 21
38.07346333149418
 31
0.0
  0
LINE
  5
494
330
47E
100
AcDbEntity
  8
0
 62
     0
440
 16777216
370
    -2
100
AcDbLine
 10
23.63617698002055
 20
38.07346333149418
 30
0.0
 11
22.05656646887049
 21
38.93649903936742
 31
0.0
  0
MTEXT
  5
495
330
47E
100
AcDbEntity
  8
0
 62
     0
440
 16777216
100
AcDbMText
 10
28.83604055437253
 20
38.07346333149418
 30
0.0
 40
1.799999999999999
 41
0.0
 46
0.0
 71
     5
 72
     1
  1
\A1;R1.7
 73
     1
 44
1.0
  0
SOLID
  5
496
330
47E
100
AcDbEntity
  8
0
 62
     0
440
 16777216
100
AcDbTrace
 10
22.20040575351603
 20
39.19976745789243
 30
0.0
 11
21.91272718422495
 21
38.67323062084241
 31
0.0
 12
20.47695595772044
 22
39.79953474724066
 32
0.0
 13
20.47695595772044
 23
39.79953474724066
 33
0.0
  0
LINE
  5
497
330
47E
100
AcDbEntity
  8
0
 62
     0
440
 16777216
370
    -2
100
AcDbLine
 10
18.07964542070576
 20
40.61760505640673
 30
0.0
 11
19.87964542070576
 21
40.61760505640673
 31
0.0
  0
LINE
  5
498
330
47E
100
AcDbEntity
  8
0
 62
     0
440
 16777216
370
    -2
100
AcDbLine
 10
18.97964542070576
 20
39.71760505640674
 30
0.0
 11
18.97964542070577
 21
41.51760505640672
 31
0.0
  0
POINT
  5
499
330
47E
100
AcDbEntity
  8
Defpoints
 62
     0
440
 16777216
100
AcDbPoint
 10
20.47695595772044
 20
39.79953474724066
 30
0.0
  0
POINT
  5
49A
330
47E
100
AcDbEntity
  8
Defpoints
 62
     0
440
 16777216
100
AcDbPoint
 10
18.97964542070576
 20
40.61760505640672
 30
0.0
  0
ENDBLK
  5
480
330
47E
100
AcDbEntity
  8
0
100
AcDbBlockEnd
  0
ENDSEC
  0
SECTION
  2
ENTITIES
  0
CIRCLE
  5
1E1
330
1F
100
AcDbEntity
  8
0
100
AcDbCircle
 10
35.30682691901719
 20
109.8123952378282
 30
0.0
 40
1.706217417269615
  0
CIRCLE
  5
1E7
330
1F
100
AcDbEntity
  8
0
100
AcDbCircle
 10
18.7472498582019
 20
91.64118076253558
 30
0.0
 40
1.706217417269615
  0
CIRCLE
  5
1E8
102
{ACAD_REACTORS
330
492
102
}
330
1F
100
AcDbEntity
  8
0
100
AcDbCircle
 10
18.97964542070577
 20
40.61760505640672
 30
0.0
 40
1.706217417269615
  0
CIRCLE
  5
1E9
330
1F
100
AcDbEntity
  8
0
100
AcDbCircle
 10
167.6131546979754
 20
91.92059640177072
 30
0.0
 40
1.706217417269615
  0
CIRCLE
  5
1EA
330
1F
100
AcDbEntity
  8
0
100
AcDbCircle
 10
167.669184183254
 20
84.94351063921806
 30
0.0
 40
1.706217417269615
  0
CIRCLE
  5
1EB
330
1F
100
AcDbEntity
  8
0
100
AcDbCircle
 10
168.1681243586697
 20
41.15499022584219
 30
0.0
 40
1.706217417269615
  0
CIRCLE
  5
1EC
330
1F
100
AcDbEntity
  8
0
100
AcDbCircle
 10
167.7802614792407
 20
11.94014504441838
 30
0.0
 40
1.706217417269615
  0
CIRCLE
  5
1ED
330
1F
100
AcDbEntity
  8
0
100
AcDbCircle
 10
108.7674077846623
 20
-9.868173760317272
 30
0.0
 40
1.706217417269615
  0
CIRCLE
  5
1EE
330
1F
100
AcDbEntity
  8
0
100
AcDbCircle
 10
78.45198138577121
 20
-11.09981833263616
 30
0.0
 40
1.706217417269615
  0
CIRCLE
  5
1EF
330
1F
100
AcDbEntity
  8
0
100
AcDbCircle
 10
155.8425821511051
 20
6.143206455926254
 30
0.0
 40
1.706217417269615
  0
CIRCLE
  5
1F0
330
1F
100
AcDbEntity
  8
0
100
AcDbCircle
 10
19.05346272442431
 20
1.462956809480182
 30
0.0
 40
1.706217417269615
  0
CIRCLE
  5
1F1
102
{ACAD_REACTORS
330
3BA
330
3D4
102
}
330
1F
100
AcDbEntity
  8
0
100
AcDbCircle
 10
43.93244202816216
 20
-5.45420371300991
 30
0.0
 40
1.050409245828024
  0
CIRCLE
  5
1F2
330
1F
100
AcDbEntity
  8
0
100
AcDbCircle
 10
50.13110472007111
 20
-5.769213533120041
 30
0.0
 40
1.050409245828024
  0
CIRCLE
  5
1F3
330
1F
100
AcDbEntity
  8
0
100
AcDbCircle
 10
54.12346360952433
 20
-8.289292094001094
 30
0.0
 40
1.050409245828024
  0
CIRCLE
  5
1F4
330
1F
100
AcDbEntity
  8
0
100
AcDbCircle
 10
58.01076032011302
 20
-7.97428227389096
 30
0.0
 40
1.050409245828024
  0
CIRCLE
  5
1F5
330
1F
100
AcDbEntity
  8
0
100
AcDbCircle
 10
62.00311953518287
 20
-8.184288755956227
 30
0.0
 40
1.050409245828024
  0
CIRCLE
  5
1F6
330
1F
100
AcDbEntity
  8
0
100
AcDbCircle
 10
64.73473358072815
 20
-10.28435415868228
 30
0.0
 40
1.050409245828024
  0
CIRCLE
  5
1F7
330
1F
100
AcDbEntity
  8
0
100
AcDbCircle
 10
37.94390336836562
 20
-5.559207051054794
 30
0.0
 40
1.050409245828024
  0
CIRCLE
  5
1F8
330
1F
100
AcDbEntity
  8
0
100
AcDbCircle
 10
33.9515444789124
 20
-7.134256151605452
 30
0.0
 40
1.050409245828024
  0
CIRCLE
  5
1F9
330
1F
100
AcDbEntity
  8
0
100
AcDbCircle
 10
29.95918558945919
 20
-6.819246331495321
 30
0.0
 40
1.050409245828024
  0
CIRCLE
  5
1FA
330
1F
100
AcDbEntity
  8
0
100
AcDbCircle
 10
25.96682670000598
 20
-7.029252813560567
 30
0.0
 40
1.050409245828024
  0
CIRCLE
  5
1FB
330
1F
100
AcDbEntity
  8
0
100
AcDbCircle
 10
24.07570910852721
 20
-10.28435415868228
 30
0.0
 40
1.050409245828024
  0
CIRCLE
  5
1FC
330
1F
100
AcDbEntity
  8
0
100
AcDbCircle
 10
122.6513837086354
 20
-9.81607702040706
 30
0.0
 40
1.050409245828024
  0
CIRCLE
  5
1FD
330
1F
100
AcDbEntity
  8
0
100
AcDbCircle
 10
125.5044264047558
 20
-7.915113341293274
 30
0.0
 40
1.050409245828024
  0
CIRCLE
  5
1FE
330
1F
100
AcDbEntity
  8
0
100
AcDbCircle
 10
129.4986862444477
 20
-8.105209612192407
 30
0.0
 40
1.050409245828024
  0
CIRCLE
  5
1FF
330
1F
100
AcDbEntity
  8
0
100
AcDbCircle
 10
133.4929457585229
 20
-7.915113341293274
 30
0.0
 40
1.050409245828024
  0
CIRCLE
  5
200
330
1F
100
AcDbEntity
  8
0
100
AcDbCircle
 10
137.392104359527
 20
-5.348812131959078
 30
0.0
 40
1.050409245828024
  0
CIRCLE
  5
201
102
{ACAD_REACTORS
330
396
330
3D4
102
}
330
1F
100
AcDbEntity
  8
0
100
AcDbCircle
 10
143.2883925547602
 20
-4.968619396136325
 30
0.0
 40
1.050409245828024
  0
CIRCLE
  5
202
330
1F
100
AcDbEntity
  8
0
100
AcDbCircle
 10
149.1846807499935
 20
-5.348812131959078
 30
0.0
 40
1.050409245828024
  0
CIRCLE
  5
203
330
1F
100
AcDbEntity
  8
0
100
AcDbCircle
 10
153.27404215399
 20
-6.679486804350954
 30
0.0
 40
1.050409245828024
  0
CIRCLE
  5
204
330
1F
100
AcDbEntity
  8
0
100
AcDbCircle
 10
157.1732004293773
 20
-6.394342203977782
 30
0.0
 40
1.050409245828024
  0
CIRCLE
  5
205
330
1F
100
AcDbEntity
  8
0
100
AcDbCircle
 10
161.1674602690692
 20
-6.584438668901398
 30
0.0
 40
1.050409245828024
  0
CIRCLE
  5
206
330
1F
100
AcDbEntity
  8
0
100
AcDbCircle
 10
163.1645901889152
 20
-10.00617348533067
 30
0.0
 40
1.050409245828024
  0
LWPOLYLINE
  5
207
330
1F
100
AcDbEntity
  8
0
100
AcDbPolyline
 90
        4
 70
     1
 43
0.0
 10
19.01560652799593
 20
-4.263766838132053
 10
68.77362960757634
 20
-4.263766838132053
 10
68.77362960757634
 20
-13.34690307687656
 10
19.01560652799593
 20
-13.34690307687656
  0
LWPOLYLINE
  5
208
330
1F
100
AcDbEntity
  8
0
100
AcDbPolyline
 90
        4
 70
     1
 43
0.0
 10
118.3406947790592
 20
-4.302831147023901
 10
168.0987178586397
 20
-4.302831147023901
 10
168.0987178586397
 20
-13.38596738576841
 10
118.3406947790592
 20
-13.38596738576841
  0
LWPOLYLINE
  5
209
102
{ACAD_REACTORS
330
30C
330
326
330
396
330
3BA
102
}
330
1F
100
AcDbEntity
  8
0
100
AcDbPolyline
 90
        4
 70
     1
 43
0.0
 10
14.34468134147282
 20
113.7755804248228
 10
172.4590288181359
 20
113.7755804248228
 10
172.4590288181359
 20
-13.2243455670566
 10
14.34468134147282
 20
-13.2243455670566
  0
CIRCLE
  5
20A
102
{ACAD_REACTORS
330
446
102
}
330
1F
100
AcDbEntity
  8
0
100
AcDbCircle
 10
46.83495697052502
 20
98.93648104771187
 30
0.0
 40
4.569857562392416
  0
CIRCLE
  5
20B
330
1F
100
AcDbEntity
  8
0
100
AcDbCircle
 10
140.0519039696164
 20
99.08366084748005
 30
0.0
 40
4.569857562392416
  0
LWPOLYLINE
  5
20C
330
1F
100
AcDbEntity
  8
0
100
AcDbPolyline
 90
        4
 70
     1
 43
0.0
 10
58.61529929069906
 20
88.47565780844501
 10
128.5635968393472
 20
88.47565780844501
 10
128.5635968393472
 20
109.1323031152095
 10
58.61529929069906
 20
109.1323031152095
  0
CIRCLE
  5
20D
330
1F
100
AcDbEntity
  8
0
100
AcDbCircle
 10
18.61344907585744
 20
105.7690020725825
 30
0.0
 40
0.858294055034675
  0
CIRCLE
  5
20E
330
1F
100
AcDbEntity
  8
0
100
AcDbCircle
 10
22.85787566016633
 20
105.7100845957248
 30
0.0
 40
0.858294055034675
  0
CIRCLE
  5
20F
330
1F
100
AcDbEntity
  8
0
100
AcDbCircle
 10
27.16125221572581
 20
105.6511673128916
 30
0.0
 40
0.858294055034675
  0
CIRCLE
  5
210
330
1F
100
AcDbEntity
  8
0
100
AcDbCircle
 10
26.98440132512406
 20
102.6463814258351
 30
0.0
 40
0.858294055034675
  0
CIRCLE
  5
211
330
1F
100
AcDbEntity
  8
0
100
AcDbCircle
 10
22.85787566016633
 20
102.5874641430019
 30
0.0
 40
0.858294055034675
  0
CIRCLE
  5
212
330
1F
100
AcDbEntity
  8
0
100
AcDbCircle
 10
18.61344907585744
 20
102.7052987086683
 30
0.0
 40
0.858294055034675
  0
CIRCLE
  5
213
330
1F
100
AcDbEntity
  8
0
100
AcDbCircle
 10
17.78814394286588
 20
110.7180610094775
 30
0.0
 40
0.858294055034675
  0
CIRCLE
  5
214
330
1F
100
AcDbEntity
  8
0
100
AcDbCircle
 10
27.80970645811558
 20
110.6591437266443
 30
0.0
 40
0.858294055034675
  0
CIRCLE
  5
215
330
1F
100
AcDbEntity
  8
0
100
AcDbCircle
 10
152.4286200962475
 20
10.78752179656505
 30
0.0
 40
0.8246906599001901
  0
CIRCLE
  5
219
330
1F
100
AcDbEntity
  8
0
100
AcDbCircle
 10
159.1802525410138
 20
10.32215250333253
 30
0.0
 40
0.6627318091425467
  0
CIRCLE
  5
21A
330
1F
100
AcDbEntity
  8
0
100
AcDbCircle
 10
159.1802525410138
 20
1.247453225543285
 30
0.0
 40
0.6254073091480304
  0
CIRCLE
  5
21B
330
1F
100
AcDbEntity
  8
0
100
AcDbCircle
 10
151.34215051492
 20
0.7820839323107656
 30
0.0
 40
0.8566991033632017
  0
LWPOLYLINE
  5
21C
330
1F
100
AcDbEntity
  8
0
100
AcDbPolyline
 90
        4
 70
     1
 43
0.0
 10
149.1692113522649
 20
12.33875245063263
 10
162.594871364736
 20
12.33875245063263
 10
162.594871364736
 20
-0.6915852375595506
 10
149.1692113522649
 20
-0.6915852375595506
  0
LWPOLYLINE
  5
21D
330
1F
100
AcDbEntity
  8
0
100
AcDbPolyline
 90
        4
 70
     1
 43
0.0
 10
147.1747586528477
 20
113.8112956769801
 10
169.477850418851
 20
113.8112956769801
 10
169.477850418851
 20
102.7311691581654
 10
147.1747586528477
 20
102.7311691581654
  0
LWPOLYLINE
  5
228
330
1F
100
AcDbEntity
  8
0
100
AcDbPolyline
 90
        4
 70
     1
 43
0.0
 10
26.73345049551655
 20
27.45706684565538
 10
35.16258653996113
 20
27.45706684565538
 10
35.16258653996113
 20
0.3026325355649249
 10
26.73345049551655
 20
0.3026325355649249
  0
CIRCLE
  5
229
330
1F
100
AcDbEntity
  8
0
100
AcDbCircle
 10
29.18853847412174
 20
23.61291510165534
 30
0.0
 40
0.7316381171380453
  0
CIRCLE
  5
22A
330
1F
100
AcDbEntity
  8
0
100
AcDbCircle
 10
32.87117076764625
 20
23.61291510165534
 30
0.0
 40
0.7316381171380453
  0
CIRCLE
  5
22B
330
1F
100
AcDbEntity
  8
0
100
AcDbCircle
 10
32.70749823573922
 20
19.52339183763861
 30
0.0
 40
0.7316381171380453
  0
CIRCLE
  5
22C
330
1F
100
AcDbEntity
  8
0
100
AcDbCircle
 10
29.18853847412174
 20
19.6869727216334
 30
0.0
 40
0.7316381171380453
  0
CIRCLE
  5
22D
330
1F
100
AcDbEntity
  8
0
100
AcDbCircle
 10
29.35221100602873
 20
11.50792619359997
 30
0.0
 40
0.7316381171380453
  0
CIRCLE
  5
22E
330
1F
100
AcDbEntity
  8
0
100
AcDbCircle
 10
32.87117076764625
 20
11.42613575160257
 30
0.0
 40
0.7316381171380453
  0
CIRCLE
  5
22F
330
1F
100
AcDbEntity
  8
0
100
AcDbCircle
 10
32.95300703359974
 20
7.418402929583255
 30
0.0
 40
0.7316381171380453
  0
CIRCLE
  5
230
330
1F
100
AcDbEntity
  8
0
100
AcDbCircle
 10
29.18853847412174
 20
7.663774255575436
 30
0.0
 40
0.7316381171380453
  0
CIRCLE
  5
231
102
{ACAD_REACTORS
330
472
102
}
330
1F
100
AcDbEntity
  8
0
100
AcDbCircle
 10
26.89712302742354
 20
0.4662134195597219
 30
0.0
 40
0.7316381171380453
  0
CIRCLE
  5
232
330
1F
100
AcDbEntity
  8
0
100
AcDbCircle
 10
35.24442280591463
 20
0.5480038615571275
 30
0.0
 40
0.7316381171380453
  0
CIRCLE
  5
233
330
1F
100
AcDbEntity
  8
0
100
AcDbCircle
 10
34.8352411505304
 20
26.96632419367102
 30
0.0
 40
0.7316381171380453
  0
CIRCLE
  5
234
102
{ACAD_REACTORS
330
472
102
}
330
1F
100
AcDbEntity
  8
0
100
AcDbCircle
 10
26.89712302742354
 20
26.88453355764912
 30
0.0
 40
0.7316381171380453
  0
MTEXT
  5
237
330
1F
100
AcDbEntity
  8
0
100
AcDbMText
 10
42.27310132747546
 20
-0.7324312733498495
 30
0.0
 40
2.281059792
 41
5.174048559560668
 46
0.0
 71
     1
 72
     5
  1
P2
 73
     1
 44
1.0
101
Embedded Object
 70
     1
 10
0.9999999999999998
 20
0.0
 30
0.0
 11
42.27310132747546
 21
-0.7324312733498495
 31
0.0
 40
5.174048559560668
 41
0.0
 42
3.483828700060027
 43
2.290395643809004
 71
     2
 72
     1
 44
5.174048559560668
 45
2.851324739999999
 73
     0
 74
     0
 46
0.0
  0
MTEXT
  5
23B
330
1F
100
AcDbEntity
  8
0
100
AcDbMText
 10
141.4482909582532
 20
-1.273084009233851
 30
0.0
 40
2.281059792
 41
5.174048559560668
 46
0.0
 71
     1
 72
     5
  1
P3
 73
     1
 44
1.0
101
Embedded Object
 70
     1
 10
0.9999999999999998
 20
0.0
 30
0.0
 11
141.4482909582532
 21
-1.273084009233851
 31
0.0
 40
5.174048559560668
 41
0.0
 42
3.507168329582538
 43
2.330851001648022
 71
     2
 72
     1
 44
5.174048559560668
 45
2.851324739999999
 73
     0
 74
     0
 46
0.0
  0
MTEXT
  5
23C
330
1F
100
AcDbEntity
  8
0
100
AcDbMText
 10
154.2509065523881
 20
15.66736986931968
 30
0.0
 40
2.281059792
 41
5.174048559560668
 46
0.0
 71
     1
 72
     5
  1
SW2
 73
     1
 44
1.0
101
Embedded Object
 70
     1
 10
0.9999999999999998
 20
0.0
 30
0.0
 11
154.2509065523881
 21
15.66736986931968
 31
0.0
 40
5.174048559560668
 41
0.0
 42
6.594223327759891
 43
2.358858557075034
 71
     2
 72
     1
 44
5.174048559560668
 45
2.851324739999999
 73
     0
 74
     0
 46
0.0
  0
MTEXT
  5
23D
330
1F
100
AcDbEntity
  8
0
100
AcDbMText
 10
33.03705944674825
 20
103.9706441708815
 30
0.0
 40
2.281059792
 41
5.174048559560668
 46
0.0
 71
     1
 72
     5
  1
P4
 73
     1
 44
1.0
101
Embedded Object
 70
     1
 10
0.9999999999999998
 20
0.0
 30
0.0
 11
33.03705944674825
 21
103.9706441708815
 31
0.0
 40
5.174048559560668
 41
0.0
 42
3.497832477773533
 43
2.281059792
 71
     2
 72
     1
 44
5.174048559560668
 45
2.851324739999999
 73
     0
 74
     0
 46
0.0
  0
MTEXT
  5
23E
330
1F
100
AcDbEntity
  8
0
100
AcDbMText
 10
156.626499449044
 20
101.8905374854443
 30
0.0
 40
2.281059792
 41
5.174048559560668
 46
0.0
 71
     1
 72
     5
  1
P2
 73
     1
 44
1.0
101
Embedded Object
 70
     1
 10
0.9999999999999998
 20
0.0
 30
0.0
 11
156.626499449044
 21
101.8905374854443
 31
0.0
 40
5.174048559560668
 41
0.0
 42
3.483828700060027
 43
2.290395643809004
 71
     2
 72
     1
 44
5.174048559560668
 45
2.851324739999999
 73
     0
 74
     0
 46
0.0
  0
MTEXT
  5
23F
330
1F
100
AcDbEntity
  8
0
100
AcDbMText
 10
36.19715803070254
 20
15.33682741860347
 30
0.0
 40
2.281059792
 41
5.174048559560668
 46
0.0
 71
     1
 72
     5
  1
SW1
 73
     1
 44
1.0
101
Embedded Object
 70
     1
 10
0.9999999999999998
 20
0.0
 30
0.0
 11
36.19715803070254
 21
15.33682741860347
 31
0.0
 40
5.174048559560668
 41
0.0
 42
6.177221946957708
 43
2.358858557075034
 71
     2
 72
     1
 44
5.174048559560668
 45
2.851324739999999
 73
     0
 74
     0
 46
0.0
  0
LWPOLYLINE
  5
24A
330
1F
100
AcDbEntity
  8
0
100
AcDbPolyline
 90
        4
 70
     1
 43
0.0
 10
74.7409536887585
 20
11.70558825549096
 10
112.6997509594373
 20
11.70558825549096
 10
112.6997509594373
 20
0.4449727824605994
 10
74.7409536887585
 20
0.4449727824605994
  0
CIRCLE
  5
24E
330
1F
100
AcDbEntity
  8
0
100
AcDbCircle
 10
63.64916205023275
 20
94.47724275842126
 30
0.0
 40
0.5825832153352932
  0
CIRCLE
  5
24F
330
1F
100
AcDbEntity
  8
0
100
AcDbCircle
 10
66.10436692522981
 20
94.43829292397898
 30
0.0
 40
0.5825832153352932
  0
CIRCLE
  5
250
330
1F
100
AcDbEntity
  8
0
100
AcDbCircle
 10
66.10436692522981
 20
94.43829292397898
 30
0.0
 40
0.5825832153352932
  0
CIRCLE
  5
251
330
1F
100
AcDbEntity
  8
0
100
AcDbCircle
 10
68.61802878780813
 20
94.48698007151348
 30
0.0
 40
0.5825832153352932
  0
CIRCLE
  5
252
330
1F
100
AcDbEntity
  8
0
100
AcDbCircle
 10
71.12321419670144
 20
94.47768649243158
 30
0.0
 40
0.5825832153352932
  0
CIRCLE
  5
253
330
1F
100
AcDbEntity
  8
0
100
AcDbCircle
 10
73.63304876070052
 20
94.42041628350027
 30
0.0
 40
0.5825832153352932
  0
CIRCLE
  5
254
330
1F
100
AcDbEntity
  8
0
100
AcDbCircle
 10
76.09704137893868
 20
94.48914053421786
 30
0.0
 40
0.5825832153352932
  0
CIRCLE
  5
255
330
1F
100
AcDbEntity
  8
0
100
AcDbCircle
 10
78.57245011834303
 20
94.47393755122154
 30
0.0
 40
0.5825832153352932
  0
CIRCLE
  5
256
330
1F
100
AcDbEntity
  8
0
100
AcDbCircle
 10
81.04977543758721
 20
94.48244591318944
 30
0.0
 40
0.5825832153352932
  0
CIRCLE
  5
257
330
1F
100
AcDbEntity
  8
0
100
AcDbCircle
 10
83.54412725357343
 20
94.50797119311753
 30
0.0
 40
0.5825832153352932
  0
CIRCLE
  5
258
330
1F
100
AcDbEntity
  8
0
100
AcDbCircle
 10
86.00840967066607
 20
94.50239260095981
 30
0.0
 40
0.5825832153352932
  0
CIRCLE
  5
259
330
1F
100
AcDbEntity
  8
0
100
AcDbCircle
 10
88.46615956571548
 20
94.48932679772898
 30
0.0
 40
0.5825832153352932
  0
CIRCLE
  5
25A
330
1F
100
AcDbEntity
  8
0
100
AcDbCircle
 10
90.98850139241042
 20
94.50533905687617
 30
0.0
 40
0.5825832153352932
  0
CIRCLE
  5
25B
330
1F
100
AcDbEntity
  8
0
100
AcDbCircle
 10
93.50872931555107
 20
94.57162383767167
 30
0.0
 40
0.5825832153352932
  0
CIRCLE
  5
25C
330
1F
100
AcDbEntity
  8
0
100
AcDbCircle
 10
96.00685014472896
 20
94.59371857057902
 30
0.0
 40
0.5825832153352932
  0
CIRCLE
  5
25D
330
1F
100
AcDbEntity
  8
0
100
AcDbCircle
 10
98.44909547544734
 20
94.58979132086199
 30
0.0
 40
0.5825832153352932
  0
CIRCLE
  5
25E
330
1F
100
AcDbEntity
  8
0
100
AcDbCircle
 10
100.8693219543259
 20
94.60318347328627
 30
0.0
 40
0.5825832153352932
  0
CIRCLE
  5
25F
330
1F
100
AcDbEntity
  8
0
100
AcDbCircle
 10
103.4021203098003
 20
94.61453507014141
 30
0.0
 40
0.5825832153352932
  0
CIRCLE
  5
260
330
1F
100
AcDbEntity
  8
0
100
AcDbCircle
 10
105.8667713249865
 20
94.54642607108395
 30
0.0
 40
0.5825832153352932
  0
CIRCLE
  5
261
330
1F
100
AcDbEntity
  8
0
100
AcDbCircle
 10
108.3317092084769
 20
94.54866744200096
 30
0.0
 40
0.5825832153352932
  0
CIRCLE
  5
262
330
1F
100
AcDbEntity
  8
0
100
AcDbCircle
 10
110.830009778068
 20
94.60606764734107
 30
0.0
 40
0.5825832153352932
  0
CIRCLE
  5
263
330
1F
100
AcDbEntity
  8
0
100
AcDbCircle
 10
113.3570264835872
 20
94.60606764734107
 30
0.0
 40
0.5825832153352932
  0
CIRCLE
  5
264
330
1F
100
AcDbEntity
  8
0
100
AcDbCircle
 10
115.7879992900999
 20
94.58789802988139
 30
0.0
 40
0.5825832153352932
  0
CIRCLE
  5
265
330
1F
100
AcDbEntity
  8
0
100
AcDbCircle
 10
118.3363194675899
 20
94.63535564421809
 30
0.0
 40
0.5825832153352932
  0
CIRCLE
  5
266
330
1F
100
AcDbEntity
  8
0
100
AcDbCircle
 10
120.7738430306804
 20
94.57207882510248
 30
0.0
 40
0.5825832153352932
  0
CIRCLE
  5
267
330
1F
100
AcDbEntity
  8
0
100
AcDbCircle
 10
123.2588506245017
 20
94.65117484899698
 30
0.0
 40
0.5825832153352932
  0
CIRCLE
  5
268
102
{ACAD_REACTORS
330
426
102
}
330
1F
100
AcDbEntity
  8
0
100
AcDbCircle
 10
63.63182458955125
 20
103.1285018234756
 30
0.0
 40
0.5825832153352932
  0
CIRCLE
  5
269
102
{ACAD_REACTORS
330
426
102
}
330
1F
100
AcDbEntity
  8
0
100
AcDbCircle
 10
66.10373815940056
 20
103.1115803655648
 30
0.0
 40
0.5825832153352932
  0
CIRCLE
  5
26A
330
1F
100
AcDbEntity
  8
0
100
AcDbCircle
 10
68.60854715539971
 20
103.138286284519
 30
0.0
 40
0.5825832153352932
  0
CIRCLE
  5
26B
330
1F
100
AcDbEntity
  8
0
100
AcDbCircle
 10
71.0786447609666
 20
103.1599417459793
 30
0.0
 40
0.5825832153352932
  0
CIRCLE
  5
26C
330
1F
100
AcDbEntity
  8
0
100
AcDbCircle
 10
73.57849005613698
 20
103.1407833797148
 30
0.0
 40
0.5825832153352932
  0
CIRCLE
  5
26D
330
1F
100
AcDbEntity
  8
0
100
AcDbCircle
 10
76.05523903383911
 20
103.1695667188914
 30
0.0
 40
0.5825832153352932
  0
CIRCLE
  5
26E
330
1F
100
AcDbEntity
  8
0
100
AcDbCircle
 10
78.55222150706729
 20
103.2007555737042
 30
0.0
 40
0.5825832153352932
  0
CIRCLE
  5
26F
330
1F
100
AcDbEntity
  8
0
100
AcDbCircle
 10
81.0165267173283
 20
103.2369749014883
 30
0.0
 40
0.5825832153352932
  0
CIRCLE
  5
270
330
1F
100
AcDbEntity
  8
0
100
AcDbCircle
 10
83.55331127232679
 20
103.2007555737042
 30
0.0
 40
0.5825832153352932
  0
CIRCLE
  5
271
330
1F
100
AcDbEntity
  8
0
100
AcDbCircle
 10
85.99949656499916
 20
103.2007555737042
 30
0.0
 40
0.5825832153352932
  0
CIRCLE
  5
272
330
1F
100
AcDbEntity
  8
0
100
AcDbCircle
 10
88.4983851983331
 20
103.2014236000258
 30
0.0
 40
0.5825832153352932
  0
CIRCLE
  5
273
330
1F
100
AcDbEntity
  8
0
100
AcDbCircle
 10
91.01565066082438
 20
103.2178669815914
 30
0.0
 40
0.5825832153352932
  0
CIRCLE
  5
274
330
1F
100
AcDbEntity
  8
0
100
AcDbCircle
 10
93.53291612331558
 20
103.2014236000258
 30
0.0
 40
0.5825832153352932
  0
CIRCLE
  5
275
330
1F
100
AcDbEntity
  8
0
100
AcDbCircle
 10
95.91786398748723
 20
103.2904835576177
 30
0.0
 40
0.5825832153352932
  0
CIRCLE
  5
276
330
1F
100
AcDbEntity
  8
0
100
AcDbCircle
 10
98.43672008751116
 20
103.2605139527047
 30
0.0
 40
0.5825832153352932
  0
CIRCLE
  5
277
330
1F
100
AcDbEntity
  8
0
100
AcDbCircle
 10
100.9255901465142
 20
103.2904835576177
 30
0.0
 40
0.5825832153352932
  0
CIRCLE
  5
278
330
1F
100
AcDbEntity
  8
0
100
AcDbCircle
 10
103.4144602055172
 20
103.2904835576177
 30
0.0
 40
0.5825832153352932
  0
CIRCLE
  5
279
330
1F
100
AcDbEntity
  8
0
100
AcDbCircle
 10
105.9033302645202
 20
103.3504227674436
 30
0.0
 40
0.5825832153352932
  0
CIRCLE
  5
27A
330
1F
100
AcDbEntity
  8
0
100
AcDbCircle
 10
108.4221863645442
 20
103.2904835576177
 30
0.0
 40
0.5825832153352932
  0
CIRCLE
  5
27B
330
1F
100
AcDbEntity
  8
0
100
AcDbCircle
 10
110.8210973236344
 20
103.2904835576177
 30
0.0
 40
0.5825832153352932
  0
CIRCLE
  5
27C
330
1F
100
AcDbEntity
  8
0
100
AcDbCircle
 10
113.3399537492751
 20
103.3504227674436
 30
0.0
 40
0.5825832153352932
  0
CIRCLE
  5
27D
330
1F
100
AcDbEntity
  8
0
100
AcDbCircle
 10
115.7688507493862
 20
103.3504227674436
 30
0.0
 40
0.5825832153352932
  0
CIRCLE
  5
27E
330
1F
100
AcDbEntity
  8
0
100
AcDbCircle
 10
118.3176935416644
 20
103.2005749369033
 30
0.0
 40
0.5825832153352932
  0
CIRCLE
  5
27F
330
1F
100
AcDbEntity
  8
0
100
AcDbCircle
 10
120.8064346564581
 20
103.470414885447
 30
0.0
 40
0.5825832153352932
  0
CIRCLE
  5
280
330
1F
100
AcDbEntity
  8
0
100
AcDbCircle
 10
123.3616894926041
 20
103.2739668347946
 30
0.0
 40
0.5825832153352932
  0
CIRCLE
  5
281
330
1F
100
AcDbEntity
  8
0
100
AcDbCircle
 10
63.64916205023275
 20
97.21666018534762
 30
0.0
 40
0.5825832153352932
  0
CIRCLE
  5
282
330
1F
100
AcDbEntity
  8
0
100
AcDbCircle
 10
66.10436692522981
 20
97.17771035090532
 30
0.0
 40
0.5825832153352932
  0
CIRCLE
  5
283
330
1F
100
AcDbEntity
  8
0
100
AcDbCircle
 10
66.10436692522981
 20
97.17771035090532
 30
0.0
 40
0.5825832153352932
  0
CIRCLE
  5
284
330
1F
100
AcDbEntity
  8
0
100
AcDbCircle
 10
68.61802878780813
 20
97.22639749843983
 30
0.0
 40
0.5825832153352932
  0
CIRCLE
  5
285
330
1F
100
AcDbEntity
  8
0
100
AcDbCircle
 10
71.12321419670144
 20
97.21710391935793
 30
0.0
 40
0.5825832153352932
  0
CIRCLE
  5
286
330
1F
100
AcDbEntity
  8
0
100
AcDbCircle
 10
73.63304876070052
 20
97.15983371042662
 30
0.0
 40
0.5825832153352932
  0
CIRCLE
  5
287
330
1F
100
AcDbEntity
  8
0
100
AcDbCircle
 10
76.09704137893868
 20
97.22855796114419
 30
0.0
 40
0.5825832153352932
  0
CIRCLE
  5
288
330
1F
100
AcDbEntity
  8
0
100
AcDbCircle
 10
78.57245011834303
 20
97.21335497814791
 30
0.0
 40
0.5825832153352932
  0
CIRCLE
  5
289
330
1F
100
AcDbEntity
  8
0
100
AcDbCircle
 10
81.04977543758721
 20
97.22186334011578
 30
0.0
 40
0.5825832153352932
  0
CIRCLE
  5
28A
330
1F
100
AcDbEntity
  8
0
100
AcDbCircle
 10
83.54412725357343
 20
97.24738862004388
 30
0.0
 40
0.5825832153352932
  0
CIRCLE
  5
28B
330
1F
100
AcDbEntity
  8
0
100
AcDbCircle
 10
86.00840967066607
 20
97.24181002788617
 30
0.0
 40
0.5825832153352932
  0
CIRCLE
  5
28C
330
1F
100
AcDbEntity
  8
0
100
AcDbCircle
 10
88.46615956571548
 20
97.22874422465531
 30
0.0
 40
0.5825832153352932
  0
CIRCLE
  5
28D
330
1F
100
AcDbEntity
  8
0
100
AcDbCircle
 10
90.98850139241042
 20
97.2447564838025
 30
0.0
 40
0.5825832153352932
  0
CIRCLE
  5
28E
330
1F
100
AcDbEntity
  8
0
100
AcDbCircle
 10
93.50872931555107
 20
97.31104126459802
 30
0.0
 40
0.5825832153352932
  0
CIRCLE
  5
290
330
1F
100
AcDbEntity
  8
0
100
AcDbCircle
 10
98.44909547544734
 20
97.32920874778834
 30
0.0
 40
0.5825832153352932
  0
CIRCLE
  5
291
330
1F
100
AcDbEntity
  8
0
100
AcDbCircle
 10
100.8693219543259
 20
97.3426009002126
 30
0.0
 40
0.5825832153352932
  0
CIRCLE
  5
292
330
1F
100
AcDbEntity
  8
0
100
AcDbCircle
 10
103.4021203098003
 20
97.35395249706776
 30
0.0
 40
0.5825832153352932
  0
CIRCLE
  5
293
330
1F
100
AcDbEntity
  8
0
100
AcDbCircle
 10
105.8667713249865
 20
97.2858434980103
 30
0.0
 40
0.5825832153352932
  0
CIRCLE
  5
294
330
1F
100
AcDbEntity
  8
0
100
AcDbCircle
 10
108.3317092084769
 20
97.28808486892731
 30
0.0
 40
0.5825832153352932
  0
CIRCLE
  5
295
330
1F
100
AcDbEntity
  8
0
100
AcDbCircle
 10
110.830009778068
 20
97.34548507426742
 30
0.0
 40
0.5825832153352932
  0
CIRCLE
  5
296
330
1F
100
AcDbEntity
  8
0
100
AcDbCircle
 10
113.3570264835872
 20
97.34548507426742
 30
0.0
 40
0.5825832153352932
  0
CIRCLE
  5
297
330
1F
100
AcDbEntity
  8
0
100
AcDbCircle
 10
115.7879992900999
 20
97.32731545680774
 30
0.0
 40
0.5825832153352932
  0
CIRCLE
  5
298
330
1F
100
AcDbEntity
  8
0
100
AcDbCircle
 10
118.3363194675899
 20
97.37477307114444
 30
0.0
 40
0.5825832153352932
  0
CIRCLE
  5
299
330
1F
100
AcDbEntity
  8
0
100
AcDbCircle
 10
120.7738430306804
 20
97.31149625202881
 30
0.0
 40
0.5825832153352932
  0
CIRCLE
  5
29A
330
1F
100
AcDbEntity
  8
0
100
AcDbCircle
 10
123.2588506245017
 20
97.39059227592331
 30
0.0
 40
0.5825832153352932
  0
CIRCLE
  5
29B
330
1F
100
AcDbEntity
  8
0
100
AcDbCircle
 10
63.54764518589351
 20
100.666296887692
 30
0.0
 40
0.5825832153352932
  0
CIRCLE
  5
29C
330
1F
100
AcDbEntity
  8
0
100
AcDbCircle
 10
66.00285006089055
 20
100.6273470532497
 30
0.0
 40
0.5825832153352932
  0
CIRCLE
  5
29D
330
1F
100
AcDbEntity
  8
0
100
AcDbCircle
 10
66.00285006089055
 20
100.6273470532497
 30
0.0
 40
0.5825832153352932
  0
CIRCLE
  5
29E
330
1F
100
AcDbEntity
  8
0
100
AcDbCircle
 10
68.51651192346887
 20
100.6760342007842
 30
0.0
 40
0.5825832153352932
  0
CIRCLE
  5
29F
330
1F
100
AcDbEntity
  8
0
100
AcDbCircle
 10
71.02169733236218
 20
100.6667406217023
 30
0.0
 40
0.5825832153352932
  0
CIRCLE
  5
2A0
330
1F
100
AcDbEntity
  8
0
100
AcDbCircle
 10
73.53153189636126
 20
100.609470412771
 30
0.0
 40
0.5825832153352932
  0
CIRCLE
  5
2A1
330
1F
100
AcDbEntity
  8
0
100
AcDbCircle
 10
75.99552451459945
 20
100.6781946634886
 30
0.0
 40
0.5825832153352932
  0
CIRCLE
  5
2A2
330
1F
100
AcDbEntity
  8
0
100
AcDbCircle
 10
78.47093325400376
 20
100.6629916804923
 30
0.0
 40
0.5825832153352932
  0
CIRCLE
  5
2A3
330
1F
100
AcDbEntity
  8
0
100
AcDbCircle
 10
80.94825857324796
 20
100.6715000424602
 30
0.0
 40
0.5825832153352932
  0
CIRCLE
  5
2A4
330
1F
100
AcDbEntity
  8
0
100
AcDbCircle
 10
83.44261038923418
 20
100.6970253223883
 30
0.0
 40
0.5825832153352932
  0
CIRCLE
  5
2A5
330
1F
100
AcDbEntity
  8
0
100
AcDbCircle
 10
85.90689280632682
 20
100.6914467302306
 30
0.0
 40
0.5825832153352932
  0
CIRCLE
  5
2A6
330
1F
100
AcDbEntity
  8
0
100
AcDbCircle
 10
88.36464270137625
 20
100.6783809269997
 30
0.0
 40
0.5825832153352932
  0
CIRCLE
  5
2A7
330
1F
100
AcDbEntity
  8
0
100
AcDbCircle
 10
90.88698452807117
 20
100.6943931861469
 30
0.0
 40
0.5825832153352932
  0
CIRCLE
  5
2A8
330
1F
100
AcDbEntity
  8
0
100
AcDbCircle
 10
93.40721245121182
 20
100.7606779669424
 30
0.0
 40
0.5825832153352932
  0
CIRCLE
  5
2AA
330
1F
100
AcDbEntity
  8
0
100
AcDbCircle
 10
98.34757861110809
 20
100.7788454501328
 30
0.0
 40
0.5825832153352932
  0
CIRCLE
  5
2AB
330
1F
100
AcDbEntity
  8
0
100
AcDbCircle
 10
100.7678050899867
 20
100.792237602557
 30
0.0
 40
0.5825832153352932
  0
CIRCLE
  5
2AC
330
1F
100
AcDbEntity
  8
0
100
AcDbCircle
 10
103.3006034454611
 20
100.8035891994122
 30
0.0
 40
0.5825832153352932
  0
CIRCLE
  5
2AD
330
1F
100
AcDbEntity
  8
0
100
AcDbCircle
 10
105.7652544606472
 20
100.7354802003547
 30
0.0
 40
0.5825832153352932
  0
CIRCLE
  5
2AE
330
1F
100
AcDbEntity
  8
0
100
AcDbCircle
 10
108.2301923441377
 20
100.7377215712717
 30
0.0
 40
0.5825832153352932
  0
CIRCLE
  5
2AF
330
1F
100
AcDbEntity
  8
0
100
AcDbCircle
 10
110.7284929137287
 20
100.7951217766118
 30
0.0
 40
0.5825832153352932
  0
CIRCLE
  5
2B0
330
1F
100
AcDbEntity
  8
0
100
AcDbCircle
 10
113.255509619248
 20
100.7951217766118
 30
0.0
 40
0.5825832153352932
  0
CIRCLE
  5
2B1
330
1F
100
AcDbEntity
  8
0
100
AcDbCircle
 10
115.6864824257606
 20
100.7769521591521
 30
0.0
 40
0.5825832153352932
  0
CIRCLE
  5
2B2
330
1F
100
AcDbEntity
  8
0
100
AcDbCircle
 10
118.2348026032507
 20
100.8244097734888
 30
0.0
 40
0.5825832153352932
  0
CIRCLE
  5
2B3
330
1F
100
AcDbEntity
  8
0
100
AcDbCircle
 10
120.6723261663412
 20
100.7611329543733
 30
0.0
 40
0.5825832153352932
  0
CIRCLE
  5
2B4
330
1F
100
AcDbEntity
  8
0
100
AcDbCircle
 10
123.1573337601625
 20
100.8402289782677
 30
0.0
 40
0.5825832153352932
  0
ARC
  5
2B5
330
1F
100
AcDbEntity
  8
0
100
AcDbCircle
 10
35.14481438099795
 20
109.782837546909
 30
0.0
 40
4.981286009169515
100
AcDbArc
 50
270.0
 51
53.27823924118632
  0
LINE
  5
2B6
330
1F
100
AcDbEntity
  8
0
100
AcDbLine
 10
35.14481438099795
 20
104.8015515377395
 30
0.0
 11
29.70018486403104
 21
104.8015515377395
 31
0.0
  0
LINE
  5
2B7
330
1F
100
AcDbEntity
  8
0
100
AcDbLine
 10
29.70018486403104
 20
104.8015515377395
 30
0.0
 11
29.70018486403104
 21
101.666579478348
 31
0.0
  0
LINE
  5
2B8
330
1F
100
AcDbEntity
  8
0
100
AcDbLine
 10
29.70018486403104
 20
101.666579478348
 30
0.0
 11
15.76562406158437
 21
101.666579478348
 31
0.0
  0
LINE
  5
2B9
330
1F
100
AcDbEntity
  8
0
100
AcDbLine
 10
15.76562406158437
 20
101.666579478348
 30
0.0
 11
15.76562406158437
 21
104.7101762783114
 31
0.0
  0
LINE
  5
2BA
330
1F
100
AcDbEntity
  8
0
100
AcDbLine
 10
15.76562406158437
 20
104.7101762783114
 30
0.0
 11
14.34468134147282
 21
104.7101762783114
 31
0.0
  0
CIRCLE
  5
2BB
102
{ACAD_REACTORS
330
402
102
}
330
1F
100
AcDbEntity
  8
0
100
AcDbCircle
 10
77.20965179378999
 20
6.097856141583438
 30
0.0
 40
1.330775551133613
  0
CIRCLE
  5
2BC
102
{ACAD_REACTORS
330
402
102
}
330
1F
100
AcDbEntity
  8
0
100
AcDbCircle
 10
110.0798143214393
 20
6.164357647735112
 30
0.0
 40
1.263529392979935
  0
CIRCLE
  5
2DF
330
1F
100
AcDbEntity
  8
0
100
AcDbCircle
 10
92.39701335390012
 20
-6.359178302966686
 30
0.0
 40
0.4323321324209968
  0
CIRCLE
  5
2E0
330
1F
100
AcDbEntity
  8
0
100
AcDbCircle
 10
94.84073257327924
 20
-6.359178302966686
 30
0.0
 40
0.4323321324209968
  0
DIMENSION
  5
2F2
102
{ACAD_XDICTIONARY
360
301
102
}
102
{ACAD_REACTORS
330
30C
102
}
330
1F
100
AcDbEntity
  8
0
100
AcDbDimension
280
     0
  2
*D2
 10
172.4590288181359
 20
124.108614920352
 30
0.0
 11
93.40185507980438
 21
124.108614920352
 31
0.0
 70
    32
 71
     5
 42
158.1143474766631
 73
     0
 74
     0
 75
     0
  3
Standard
100
AcDbAlignedDimension
 13
14.34468134147282
 23
113.7755804248228
 33
0.0
 14
172.4590288181359
 24
113.7755804248228
 34
0.0
100
AcDbRotatedDimension
1001
ACAD
1000
DSTYLE
1002
{
1070
    41
1040
1.799999999999999
1070
    42
1040
0.625
1070
    44
1040
1.799999999999999
1070
   140
1040
1.799999999999999
1070
   141
1040
0.9
1070
   147
1040
0.9
1070
   271
1070
     1
1002
}
  0
DIMENSION
  5
30D
102
{ACAD_XDICTIONARY
360
31B
102
}
102
{ACAD_REACTORS
330
326
102
}
330
1F
100
AcDbEntity
  8
0
100
AcDbDimension
280
     0
  2
*D4
 10
185.6014455929543
 20
-13.2243455670566
 30
0.0
 11
185.6014455929543
 21
50.27561742888316
 31
0.0
 70
    32
 71
     5
 42
126.9999259918795
 73
     0
 74
     0
 75
     0
  3
Standard
100
AcDbAlignedDimension
 13
172.4590288181359
 23
113.7755804248228
 33
0.0
 14
172.4590288181359
 24
-13.2243455670566
 34
0.0
 50
90.0
100
AcDbRotatedDimension
1001
AcadAnnotative
1000
AnnotativeData
1002
{
1070
     1
1070
     0
1002
}
1001
ACAD
1000
DSTYLE
1002
{
1070
   271
1070
     1
1070
   279
1070
     0
1070
   289
1070
     3
1070
   174
1070
     0
1070
   175
1070
     0
1070
   172
1070
     0
1070
   147
1040
0.9
1070
   141
1040
0.9
1070
    42
1040
0.625
1070
    44
1040
1.799999999999999
1070
    41
1040
1.799999999999999
1070
   140
1040
1.799999999999999
1070
    40
1040
1.0
1002
}
  0
DIMENSION
  5
37D
102
{ACAD_XDICTIONARY
360
38B
102
}
102
{ACAD_REACTORS
330
396
102
}
330
1F
100
AcDbEntity
  8
0
100
AcDbDimension
280
     0
  2
*D5
 10
143.2883925547602
 20
-25.51413762899767
 30
0.0
 11
157.8737106864481
 21
-25.51413762899767
 31
0.0
 70
    32
 71
     5
 42
29.17063626337571
 73
     0
 74
     0
 75
     0
  3
Standard
100
AcDbAlignedDimension
 13
172.4590288181359
 23
-13.2243455670566
 33
0.0
 14
143.2883925547602
 24
-4.968619396136325
 34
0.0
100
AcDbRotatedDimension
1001
ACAD
1000
DSTYLE
1002
{
1070
    41
1040
1.799999999999999
1070
    42
1040
0.625
1070
    44
1040
1.799999999999999
1070
   140
1040
1.799999999999999
1070
   141
1040
0.9
1070
   147
1040
0.9
1070
   271
1070
     1
1002
}
  0
DIMENSION
  5
3A1
102
{ACAD_XDICTIONARY
360
3AF
102
}
102
{ACAD_REACTORS
330
3BA
102
}
330
1F
100
AcDbEntity
  8
0
100
AcDbDimension
280
     0
  2
*D6
 10
43.93244202816216
 20
-25.51413762899767
 30
0.0
 11
29.1385616848175
 21
-25.51413762899767
 31
0.0
 70
    32
 71
     5
 42
29.58776068668934
 73
     0
 74
     0
 75
     0
  3
Standard
100
AcDbAlignedDimension
 13
14.34468134147282
 23
-13.2243455670566
 33
0.0
 14
43.93244202816216
 24
-5.45420371300991
 34
0.0
100
AcDbRotatedDimension
1001
ACAD
1000
DSTYLE
1002
{
1070
    41
1040
1.799999999999999
1070
    42
1040
0.625
1070
    44
1040
1.799999999999999
1070
   140
1040
1.799999999999999
1070
   141
1040
0.9
1070
   147
1040
0.9
1070
   271
1070
     1
1002
}
  0
DIMENSION
  5
3BB
102
{ACAD_XDICTIONARY
360
3C9
102
}
102
{ACAD_REACTORS
330
3D4
102
}
330
1F
100
AcDbEntity
  8
0
100
AcDbDimension
280
     0
  2
*D7
 10
143.2883925547602
 20
-25.51413762899767
 30
0.0
 11
93.61041729146119
 21
-25.51413762899767
 31
0.0
 70
    32
 71
     5
 42
99.35595052659806
 73
     0
 74
     0
 75
     0
  3
Standard
100
AcDbAlignedDimension
 13
43.93244202816216
 23
-5.45420371300991
 33
0.0
 14
143.2883925547602
 24
-4.968619396136325
 34
0.0
100
AcDbRotatedDimension
1001
ACAD
1000
DSTYLE
1002
{
1070
    41
1040
1.799999999999999
1070
    42
1040
0.625
1070
    44
1040
1.799999999999999
1070
   140
1040
1.799999999999999
1070
   141
1040
0.9
1070
   147
1040
0.9
1070
   271
1070
     1
1002
}
  0
DIMENSION
  5
3E9
102
{ACAD_XDICTIONARY
360
3F7
102
}
102
{ACAD_REACTORS
330
402
102
}
330
1F
100
AcDbEntity
  8
0
100
AcDbDimension
280
     0
  2
*D8
 10
110.0798143214393
 20
17.2527398945877
 30
0.0
 11
93.64473305761464
 21
17.2527398945877
 31
0.0
 70
    32
 71
     5
 42
32.87016252764932
 73
     0
 74
     0
 75
     0
  3
Standard
100
AcDbAlignedDimension
 13
77.20965179378999
 23
6.097856141583438
 33
0.0
 14
110.0798143214393
 24
6.164357647735112
 34
0.0
100
AcDbRotatedDimension
1001
ACAD
1000
DSTYLE
1002
{
1070
    41
1040
1.799999999999999
1070
    42
1040
0.625
1070
    44
1040
1.799999999999999
1070
   140
1040
1.799999999999999
1070
   141
1040
0.9
1070
   147
1040
0.9
1070
   271
1070
     1
1002
}
  0
DIMENSION
  5
40D
102
{ACAD_XDICTIONARY
360
41B
102
}
102
{ACAD_REACTORS
330
426
102
}
330
1F
100
AcDbEntity
  8
0
100
AcDbDimension
280
     0
  2
*D9
 10
66.10373815940056
 20
105.703412034287
 30
0.0
 11
72.26437935994626
 21
105.703412034287
 31
0.0
 70
    32
 71
     5
 42
2.471913569849313
 73
     0
 74
     0
 75
     0
  3
Standard
100
AcDbAlignedDimension
 13
63.63182458955125
 23
103.1285018234756
 33
0.0
 14
66.10373815940056
 24
103.1115803655648
 34
0.0
100
AcDbRotatedDimension
1001
ACAD
1000
DSTYLE
1002
{
1070
    41
1040
1.799999999999999
1070
    42
1040
0.625
1070
    44
1040
1.799999999999999
1070
   140
1040
1.799999999999999
1070
   141
1040
0.9
1070
   147
1040
0.9
1070
   271
1070
     1
1002
}
  0
DIMENSION
  5
431
102
{ACAD_XDICTIONARY
360
43D
102
}
102
{ACAD_REACTORS
330
446
102
}
330
1F
100
AcDbEntity
  8
0
100
AcDbDimension
280
     0
  2
*D10
 10
46.83495697052502
 20
98.93648104771187
 30
0.0
 11
55.01637062086182
 21
106.5426147908281
 31
0.0
 70
    36
 71
     5
 42
4.569857562392385
 73
     0
 74
     0
 75
     0
  3
Standard
100
AcDbRadialDimension
 15
48.50304782331182
 25
103.1910163980649
 35
0.0
 40
0.0
1001
ACAD
1000
DSTYLE
1002
{
1070
    41
1040
1.799999999999999
1070
    42
1040
0.625
1070
    44
1040
1.799999999999999
1070
   140
1040
1.799999999999999
1070
   141
1040
0.9
1070
   147
1040
0.9
1070
   271
1070
     1
1002
}
  0
DIMENSION
  5
459
102
{ACAD_XDICTIONARY
360
467
102
}
102
{ACAD_REACTORS
330
472
102
}
330
1F
100
AcDbEntity
  8
0
100
AcDbDimension
280
     0
  2
*D11
 10
22.88636810213166
 20
26.88453355764913
 30
0.0
 11
22.88636810213165
 21
13.67537348860442
 31
0.0
 70
    32
 71
     5
 42
26.4183201380894
 73
     0
 74
     0
 75
     0
  3
Standard
100
AcDbAlignedDimension
 13
26.89712302742354
 23
0.4662134195597219
 33
0.0
 14
26.89712302742354
 24
26.88453355764912
 34
0.0
 50
90.0
100
AcDbRotatedDimension
1001
ACAD
1000
DSTYLE
1002
{
1070
    41
1040
1.799999999999999
1070
    42
1040
0.625
1070
    44
1040
1.799999999999999
1070
   140
1040
1.799999999999999
1070
   141
1040
0.9
1070
   147
1040
0.9
1070
   271
1070
     1
1002
}
  0
DIMENSION
  5
47D
102
{ACAD_XDICTIONARY
360
489
102
}
102
{ACAD_REACTORS
330
492
102
}
330
1F
100
AcDbEntity
  8
0
100
AcDbDimension
280
     0
  2
*D12
 10
18.97964542070576
 20
40.61760505640672
 30
0.0
 11
28.83604055437253
 21
38.07346333149418
 31
0.0
 70
    36
 71
     5
 42
1.706217417269627
 73
     0
 74
     0
 75
     0
  3
Standard
100
AcDbRadialDimension
 15
20.47695595772044
 25
39.79953474724066
 35
0.0
 40
0.0
1001
ACAD
1000
DSTYLE
1002
{
1070
    41
1040
1.799999999999999
1070
    42
1040
0.625
1070
    44
1040
1.799999999999999
1070
   140
1040
1.799999999999999
1070
   141
1040
0.9
1070
   147
1040
0.9
1070
   271
1070
     1
1002
}
  0
ENDSEC
  0
SECTION
  2
OBJECTS
  0
DICTIONARY
  5
C
330
0
100
AcDbDictionary
281
     1
  3
ACAD_CIP_PREVIOUS_PRODUCT_INFO
350
1A5
  3
ACAD_COLOR
350
73
  3
ACAD_DETAILVIEWSTYLE
350
1AB
  3
ACAD_GROUP
350
D
  3
ACAD_IMAGE_DICT
350
1DC
  3
ACAD_IMAGE_VARS
350
2E8
  3
ACAD_LAYOUT
350
1A
  3
ACAD_MATERIAL
350
72
  3
ACAD_MLEADERSTYLE
350
D7
  3
ACAD_MLINESTYLE
350
17
  3
ACAD_PDFDEFINITIONS
350
1DD
  3
ACAD_PLOTSETTINGS
350
19
  3
ACAD_PLOTSTYLENAME
350
E
  3
ACAD_SCALELIST
350
B6
  3
ACAD_SECTIONVIEWSTYLE
350
1A8
  3
ACAD_TABLESTYLE
350
86
  3
ACAD_VISUALSTYLE
350
99
  3
ACDB_RECOMPOSE_DATA
350
4AA
  3
AcDbVariableDictionary
350
66
  0
DICTIONARY
  5
18E
330
2
100
AcDbDictionary
280
     1
281
     1
  3
ACAD_LAYERSTATES
360
18F
  0
DICTIONARY
  5
E6
330
10
100
AcDbDictionary
280
     1
281
     1
  0
DICTIONARY
  5
15D
330
1F
100
AcDbDictionary
280
     1
281
     1
  0
DICTIONARY
  5
301
330
2F2
100
AcDbDictionary
280
     1
281
     1
  3
ACAD_DIMASSOC
360
30C
  0
DICTIONARY
  5
31B
330
30D
100
AcDbDictionary
280
     1
281
     1
  3
ACAD_DIMASSOC
360
326
  3
AcDbContextDataManager
360
366
  0
DICTIONARY
  5
38B
330
37D
100
AcDbDictionary
280
     1
281
     1
  3
ACAD_DIMASSOC
360
396
  0
DICTIONARY
  5
3AF
330
3A1
100
AcDbDictionary
280
     1
281
     1
  3
ACAD_DIMASSOC
360
3BA
  0
DICTIONARY
  5
3C9
330
3BB
100
AcDbDictionary
280
     1
281
     1
  3
ACAD_DIMASSOC
360
3D4
  0
DICTIONARY
  5
3F7
330
3E9
100
AcDbDictionary
280
     1
281
     1
  3
ACAD_DIMASSOC
360
402
  0
DICTIONARY
  5
41B
330
40D
100
AcDbDictionary
280
     1
281
     1
  3
ACAD_DIMASSOC
360
426
  0
DICTIONARY
  5
43D
330
431
100
AcDbDictionary
280
     1
281
     1
  3
ACAD_DIMASSOC
360
446
  0
DICTIONARY
  5
467
330
459
100
AcDbDictionary
280
     1
281
     1
  3
ACAD_DIMASSOC
360
472
  0
DICTIONARY
  5
489
330
47D
100
AcDbDictionary
280
     1
281
     1
  3
ACAD_DIMASSOC
360
492
  0
XRECORD
  5
1A5
102
{ACAD_REACTORS
330
C
102
}
330
C
100
AcDbXrecord
280
     1
300
ACDMAC
300
2020
300

  0
DICTIONARY
  5
73
102
{ACAD_REACTORS
330
C
102
}
330
C
100
AcDbDictionary
281
     1
  0
DICTIONARY
  5
1AB
102
{ACAD_REACTORS
330
C
102
}
330
C
100
AcDbDictionary
281
     1
  3
Imperial24
350
1AC
  0
DICTIONARY
  5
D
102
{ACAD_REACTORS
330
C
102
}
330
C
100
AcDbDictionary
281
     1
  0
DICTIONARY
  5
1DC
102
{ACAD_REACTORS
330
C
102
}
330
C
100
AcDbDictionary
281
     1
  0
RASTERVARIABLES
  5
2E8
102
{ACAD_REACTORS
330
C
102
}
330
C
100
AcDbRasterVariables
 90
        0
 70
     1
 71
     1
 72
     5
  0
DICTIONARY
  5
1A
102
{ACAD_REACTORS
330
C
102
}
330
C
100
AcDbDictionary
281
     1
  3
Layout1
350
59
  3
Layout2
350
5E
  3
Model
350
22
  0
DICTIONARY
  5
72
102
{ACAD_REACTORS
330
C
102
}
330
C
100
AcDbDictionary
281
     1
  3
ByBlock
350
97
  3
ByLayer
350
96
  3
Global
350
98
  0
DICTIONARY
  5
D7
102
{ACAD_REACTORS
330
C
102
}
330
C
100
AcDbDictionary
281
     1
  3
Annotative
350
E5
  3
Standard
350
D8
  0
DICTIONARY
  5
17
102
{ACAD_REACTORS
330
C
102
}
330
C
100
AcDbDictionary
281
     1
  3
Standard
350
18
  0
DICTIONARY
  5
1DD
102
{ACAD_REACTORS
330
C
102
}
330
C
100
AcDbDictionary
281
     1
  3
Min Trim WM - 1
350
1DE
  0
DICTIONARY
  5
19
102
{ACAD_REACTORS
330
C
102
}
330
C
100
AcDbDictionary
281
     1
  0
ACDBDICTIONARYWDFLT
  5
E
102
{ACAD_REACTORS
330
C
102
}
330
C
100
AcDbDictionary
281
     1
  3
Normal
350
F
100
AcDbDictionaryWithDefault
340
F
  0
DICTIONARY
  5
B6
102
{ACAD_REACTORS
330
C
102
}
330
C
100
AcDbDictionary
281
     1
  3
A0
350
B7
  3
A1
350
124
  3
A2
350
125
  3
A3
350
126
  3
A4
350
127
  3
A5
350
128
  3
A6
350
129
  3
A7
350
12A
  3
A8
350
12B
  3
A9
350
12C
  3
B0
350
12D
  3
B1
350
12E
  3
B2
350
12F
  3
B3
350
130
  3
B4
350
131
  3
B5
350
132
  3
B6
350
133
  3
B7
350
134
  3
B8
350
135
  3
B9
350
136
  3
C0
350
137
  3
C1
350
138
  3
C2
350
139
  3
C3
350
13A
  3
C4
350
13B
  3
C5
350
13C
  3
C6
350
13D
  3
C7
350
13E
  3
C8
350
13F
  3
C9
350
140
  3
D0
350
141
  3
D1
350
142
  3
D2
350
143
  0
DICTIONARY
  5
1A8
102
{ACAD_REACTORS
330
C
102
}
330
C
100
AcDbDictionary
281
     1
  3
Imperial24
350
1AA
  0
DICTIONARY
  5
86
102
{ACAD_REACTORS
330
C
102
}
330
C
100
AcDbDictionary
281
     1
  3
Standard
350
87
  0
DICTIONARY
  5
99
102
{ACAD_REACTORS
330
C
102
}
330
C
100
AcDbDictionary
281
     1
  3
2dWireframe
350
9F
  3
Basic
350
9E
  3
Brighten
350
A5
  3
ColorChange
350
A9
  3
Conceptual
350
A2
  3
Dim
350
A4
  3
EdgeColorOff
350
175
  3
Facepattern
350
A8
  3
Flat
350
9A
  3
FlatWithEdges
350
9B
  3
Gouraud
350
9C
  3
GouraudWithEdges
350
9D
  3
Hidden
350
A1
  3
JitterOff
350
173
  3
Linepattern
350
A7
  3
OverhangOff
350
174
  3
Realistic
350
A3
  3
Shaded
350
182
  3
Shaded with edges
350
181
  3
Shades of Gray
350
17E
  3
Sketchy
350
17F
  3
Thicken
350
A6
  3
Wireframe
350
A0
  3
X-Ray
350
180
  0
XRECORD
  5
4AA
102
{ACAD_REACTORS
330
C
102
}
330
C
100
AcDbXrecord
280
     1
 90
        1
330
87
  0
DICTIONARY
  5
66
102
{ACAD_REACTORS
330
C
102
}
330
C
100
AcDbDictionary
281
     1
  3
CANNOSCALE
350
F0
  3
CMLEADERSTYLE
350
EF
  3
CTABLESTYLE
350
89
  3
CVIEWDETAILSTYLE
350
1B7
  3
CVIEWSECTIONSTYLE
350
1B8
  3
DIMASSOC
350
67
  3
HIDETEXT
350
6B
  3
LAYEREVAL
350
14D
  3
LAYERNOTIFY
350
14E
  0
DICTIONARY
  5
18F
102
{ACAD_REACTORS
330
18E
102
}
330
18E
100
AcDbDictionary
281
     1
  0
DIMASSOC
  5
30C
102
{ACAD_REACTORS
330
301
102
}
330
301
100
AcDbDimAssoc
330
2F2
 90
        3
 70
     0
 71
     0
  1
AcDbOsnapPointRef
 72
    13
331
209
 73
     2
 91
        1
 40
0.0
 10
14.34468134147282
 20
31.3163285309346
 30
0.0
 75
     0
  1
AcDbOsnapPointRef
 72
     1
331
209
 73
     2
 91
        1
 40
1.0
 10
69.79762405913153
 20
31.3163285309346
 30
0.0
 75
     0
  0
DIMASSOC
  5
326
102
{ACAD_REACTORS
330
31B
102
}
330
31B
100
AcDbDimAssoc
330
30D
 90
        3
 70
     0
 71
     0
  1
AcDbOsnapPointRef
 72
     1
331
209
 73
     2
 91
        1
 40
1.0
 10
69.79762405913153
 20
31.3163285309346
 30
0.0
 75
     0
  1
AcDbOsnapPointRef
 72
     1
331
209
 73
     2
 91
        2
 40
1.0
 10
69.79762405913153
 20
-13.22434556705659
 30
0.0
 75
     0
  0
DICTIONARY
  5
366
102
{ACAD_REACTORS
330
31B
102
}
330
31B
100
AcDbDictionary
281
     1
  3
ACDB_ANNOTATIONSCALES
350
367
  0
DIMASSOC
  5
396
102
{ACAD_REACTORS
330
38B
102
}
330
38B
100
AcDbDimAssoc
330
37D
 90
        3
 70
     0
 71
     0
  1
AcDbOsnapPointRef
 72
     6
331
209
 73
     2
 91
        2
 40
1.0
 10
172.4590288181359
 20
-13.2243455670566
 30
0.0
332
209
 74
     2
 92
        3
 75
     0
  1
AcDbOsnapPointRef
 72
     3
331
201
 73
     2
 91
        0
 40
0.0
 10
143.2883925547602
 20
-4.968619396136325
 30
0.0
 75
     0
  0
DIMASSOC
  5
3BA
102
{ACAD_REACTORS
330
3AF
102
}
330
3AF
100
AcDbDimAssoc
330
3A1
 90
        3
 70
     0
 71
     0
  1
AcDbOsnapPointRef
 72
     1
331
209
 73
     2
 91
        3
 40
1.0
 10
14.34468134147282
 20
-13.2243455670566
 30
0.0
 75
     0
  1
AcDbOsnapPointRef
 72
     3
331
1F1
 73
     2
 91
        0
 40
0.0
 10
43.93244202816216
 20
-5.45420371300991
 30
0.0
 75
     0
  0
DIMASSOC
  5
3D4
102
{ACAD_REACTORS
330
3C9
102
}
330
3C9
100
AcDbDimAssoc
330
3BB
 90
        3
 70
     0
 71
     0
  1
AcDbOsnapPointRef
 72
     3
331
1F1
 73
     2
 91
        0
 40
0.0
 10
43.93244202816216
 20
-5.45420371300991
 30
0.0
 75
     0
  1
AcDbOsnapPointRef
 72
     3
331
201
 73
     2
 91
        0
 40
0.0
 10
143.2883925547602
 20
-4.968619396136325
 30
0.0
 75
     0
  0
DIMASSOC
  5
402
102
{ACAD_REACTORS
330
3F7
102
}
330
3F7
100
AcDbDimAssoc
330
3E9
 90
        3
 70
     0
 71
     0
  1
AcDbOsnapPointRef
 72
     3
331
2BB
 73
     2
 91
        0
 40
0.0
 10
77.20965179378999
 20
6.097856141583438
 30
0.0
 75
     0
  1
AcDbOsnapPointRef
 72
     3
331
2BC
 73
     2
 91
        0
 40
0.0
 10
110.0798143214393
 20
6.164357647735112
 30
0.0
 75
     0
  0
DIMASSOC
  5
426
102
{ACAD_REACTORS
330
41B
102
}
330
41B
100
AcDbDimAssoc
330
40D
 90
        3
 70
     0
 71
     0
  1
AcDbOsnapPointRef
 72
     3
331
268
 73
     2
 91
        0
 40
0.0
 10
63.63182458955125
 20
103.1285018234756
 30
0.0
 75
     0
  1
AcDbOsnapPointRef
 72
     3
331
269
 73
     2
 91
        0
 40
0.0
 10
66.10373815940056
 20
103.1115803655648
 30
0.0
 75
     0
  0
DIMASSOC
  5
446
102
{ACAD_REACTORS
330
43D
102
}
330
43D
100
AcDbDimAssoc
330
431
 90
        2
 70
     0
 71
     0
  1
AcDbOsnapPointRef
 72
     3
331
20A
 73
     2
 91
        0
 40
0.0
 10
46.83495697052502
 20
98.93648104771187
 30
0.0
 75
     0
  0
DIMASSOC
  5
472
102
{ACAD_REACTORS
330
467
102
}
330
467
100
AcDbDimAssoc
330
459
 90
        3
 70
     0
 71
     0
  1
AcDbOsnapPointRef
 72
     3
331
231
 73
     2
 91
        0
 40
0.0
 10
26.89712302742354
 20
0.4662134195597219
 30
0.0
 75
     0
  1
AcDbOsnapPointRef
 72
     3
331
234
 73
     2
 91
        0
 40
0.0
 10
26.89712302742354
 20
26.88453355764912
 30
0.0
 75
     0
  0
DIMASSOC
  5
492
102
{ACAD_REACTORS
330
489
102
}
330
489
100
AcDbDimAssoc
330
47D
 90
        2
 70
     0
 71
     0
  1
AcDbOsnapPointRef
 72
     3
331
1E8
 73
     2
 91
        0
 40
0.0
 10
18.97964542070577
 20
40.61760505640672
 30
0.0
 75
     0
  0
ACDBDETAILVIEWSTYLE
  5
1AC
102
{ACAD_REACTORS
330
1AB
102
}
330
1AB
100
AcDbModelDocViewStyle
 70
     0
  3
Imperial24
290
     0
300
Imperial24
 90
        0
100
AcDbDetailViewStyle
 70
     0
 71
     0
 90
        3
 71
     1
340
11
 62
   256
 40
0.24
340
0
 62
   256
 40
0.24
300

 40
0.36
280
     3
 71
     2
340
16
 90
       25
 62
   256
 71
     3
340
11
 62
   256
 40
0.24
 90
        1
 40
0.75
 90
        1
300
%<\AcVar ViewType \f "%tc1">% %<\AcVar ViewDetailId>%\PSCALE %<\AcVar ViewScale \f "%sn">%
 71
     4
340
16
 90
       25
 62
   256
340
16
 90
       25
 62
   256
280
     0
  0
LAYOUT
  5
59
102
{ACAD_REACTORS
330
1A
102
}
330
1A
100
AcDbPlotSettings
  1

  2
None
  4

  6

 40
0.0
 41
0.0
 42
0.0
 43
0.0
 44
0.0
 45
0.0
 46
0.0
 47
0.0
 48
0.0
 49
0.0
140
0.0
141
0.0
142
1.0
143
1.0
 70
   688
 72
     0
 73
     0
 74
     5
  7

 75
    16
147
1.0
 76
     0
 77
     2
 78
   300
148
0.0
149
0.0
100
AcDbLayout
  1
Layout1
 70
     1
 71
     1
 10
0.0
 20
0.0
 11
12.0
 21
9.0
 12
0.0
 22
0.0
 32
0.0
 14
0.0
 24
0.0
 34
0.0
 15
0.0
 25
0.0
 35
0.0
146
0.0
 13
0.0
 23
0.0
 33
0.0
 16
1.0
 26
0.0
 36
0.0
 17
0.0
 27
1.0
 37
0.0
 76
     0
330
58
  0
LAYOUT
  5
5E
102
{ACAD_REACTORS
330
1A
102
}
330
1A
100
AcDbPlotSettings
  1

  2
None
  4

  6

 40
0.0
 41
0.0
 42
0.0
 43
0.0
 44
0.0
 45
0.0
 46
0.0
 47
0.0
 48
0.0
 49
0.0
140
0.0
141
0.0
142
1.0
143
1.0
 70
   688
 72
     0
 73
     0
 74
     5
  7

 75
    16
147
1.0
 76
     0
 77
     2
 78
   300
148
0.0
149
0.0
100
AcDbLayout
  1
Layout2
 70
     1
 71
     2
 10
0.0
 20
0.0
 11
12.0
 21
9.0
 12
0.0
 22
0.0
 32
0.0
 14
0.0
 24
0.0
 34
0.0
 15
0.0
 25
0.0
 35
0.0
146
0.0
 13
0.0
 23
0.0
 33
0.0
 16
1.0
 26
0.0
 36
0.0
 17
0.0
 27
1.0
 37
0.0
 76
     0
330
5D
  0
LAYOUT
  5
22
102
{ACAD_XDICTIONARY
360
194
102
}
102
{ACAD_REACTORS
330
1A
102
}
330
1A
100
AcDbPlotSettings
  1

  2
None
  4
ANSI_A_(8.50_x_11.00_Inches)
  6

 40
6.349999904632568
 41
19.04999923706055
 42
6.350006103515625
 43
19.04998779296875
 44
215.8999938964844
 45
279.3999938964844
 46
0.0
 47
0.0
 48
0.0
 49
0.0
140
0.0
141
0.0
142
1.0
143
0.3707269113310407
 70
 11952
 72
     1
 73
     1
 74
     0
  7

 75
     0
147
2.697403316121957
 76
     0
 77
     2
 78
   300
148
2.038591719675309
149
17.73850332725939
100
AcDbLayout
  1
Model
 70
     1
 71
     0
 10
0.0
 20
0.0
 11
12.0
 21
9.0
 12
0.0
 22
0.0
 32
0.0
 14
0.0
 24
0.0
 34
0.0
 15
0.0
 25
0.0
 35
0.0
146
0.0
 13
0.0
 23
0.0
 33
0.0
 16
1.0
 26
0.0
 36
0.0
 17
0.0
 27
1.0
 37
0.0
 76
     0
330
1F
331
94
1001
ACAD_PSEXT
1000
None
1000
None
1000
Not applicable
1000
The layout will not be plotted unless a new plotter configuration name is selected.
1070
     0
  0
MATERIAL
  5
97
102
{ACAD_XDICTIONARY
360
188
102
}
102
{ACAD_REACTORS
330
72
102
}
330
72
100
AcDbMaterial
  1
ByBlock
 94
       63
  0
MATERIAL
  5
96
102
{ACAD_XDICTIONARY
360
186
102
}
102
{ACAD_REACTORS
330
72
102
}
330
72
100
AcDbMaterial
  1
ByLayer
 94
       63
  0
MATERIAL
  5
98
102
{ACAD_XDICTIONARY
360
110
102
}
102
{ACAD_REACTORS
330
72
102
}
330
72
100
AcDbMaterial
  1
Global
 43
0.0208000000566244
 43
0.0
 43
0.0
 43
0.0
 43
0.0
 43
0.0208000000566244
 43
0.0
 43
0.0
 43
0.0
 43
0.0
 43
1.0
 43
0.0
 43
0.0
 43
0.0
 43
0.0
 43
1.0
 49
0.0208000000566244
 49
0.0
 49
0.0
 49
0.0
 49
0.0
 49
0.0208000000566244
 49
0.0
 49
0.0
 49
0.0
 49
0.0
 49
1.0
 49
0.0
 49
0.0
 49
0.0
 49
0.0
 49
1.0
142
0.0208000000566244
142
0.0
142
0.0
142
0.0
142
0.0
142
0.0208000000566244
142
0.0
142
0.0
142
0.0
142
0.0
142
1.0
142
0.0
142
0.0
142
0.0
142
0.0
142
1.0
144
0.0208000000566244
144
0.0
144
0.0
144
0.0
144
0.0
144
0.0208000000566244
144
0.0
144
0.0
144
0.0
144
0.0
144
1.0
144
0.0
144
0.0
144
0.0
144
0.0
144
1.0
 94
       63
1001
ACAD
1070
    -1
1070
     3
1070
     0
1000

1071
        0
1070
     0
  0
MLEADERSTYLE
  5
E5
102
{ACAD_REACTORS
330
D7
102
}
330
D7
100
AcDbMLeaderStyle
179
     2
170
     2
171
     1
172
     0
 90
        2
 40
0.0
 41
0.0
173
     1
 91
-1056964608
340
14
 92
       -2
290
     1
 42
0.09
291
     1
 43
0.36
  3
Standard
 44
0.18
300

342
11
174
     1
178
     1
175
     1
176
     0
 93
-1056964608
 45
0.18
292
     0
297
     0
 46
0.18
 94
-1056964608
 47
1.0
 49
1.0
140
1.0
293
     1
141
0.0
294
     1
177
     0
142
1.0
295
     0
296
     1
143
0.125
271
     0
272
     9
273
     9
298
     0
  0
MLEADERSTYLE
  5
D8
102
{ACAD_REACTORS
330
D7
102
}
330
D7
100
AcDbMLeaderStyle
179
     2
170
     2
171
     1
172
     0
 90
        2
 40
0.0
 41
0.0
173
     1
 91
-1056964608
340
14
 92
       -2
290
     1
 42
0.09
291
     1
 43
0.36
  3
Standard
 44
0.18
300

342
11
174
     1
178
     1
175
     1
176
     0
 93
-1056964608
 45
0.18
292
     0
297
     0
 46
0.18
 94
-1056964608
 47
1.0
 49
1.0
140
1.0
293
     1
141
0.0
294
     1
177
     0
142
1.0
295
     0
296
     0
143
0.125
271
     0
272
     9
273
     9
298
     0
  0
MLINESTYLE
  5
18
102
{ACAD_REACTORS
330
17
102
}
330
17
100
AcDbMlineStyle
  2
STANDARD
 70
     0
  3

 62
   256
 51
90.0
 52
90.0
 71
     2
 49
0.5
 62
   256
  6
BYLAYER
 49
-0.5
 62
   256
  6
BYLAYER
  0
PDFDEFINITION
  5
1DE
102
{ACAD_REACTORS
330
1DD
330
1DF
102
}
330
1DD
100
AcDbUnderlayDefinition
  1
/Users/karl/Desktop/Min Trim WM.pdf
  2
1
  0
ACDBPLACEHOLDER
  5
F
102
{ACAD_REACTORS
330
E
102
}
330
E
  0
SCALE
  5
B7
102
{ACAD_REACTORS
330
B6
102
}
330
B6
100
AcDbScale
 70
     0
300
1:1
140
1.0
141
1.0
290
     1
  0
SCALE
  5
124
102
{ACAD_REACTORS
330
B6
102
}
330
B6
100
AcDbScale
 70
     0
300
1:2
140
1.0
141
2.0
290
     0
  0
SCALE
  5
125
102
{ACAD_REACTORS
330
B6
102
}
330
B6
100
AcDbScale
 70
     0
300
1:4
140
1.0
141
4.0
290
     0
  0
SCALE
  5
126
102
{ACAD_REACTORS
330
B6
102
}
330
B6
100
AcDbScale
 70
     0
300
1:5
140
1.0
141
5.0
290
     0
  0
SCALE
  5
127
102
{ACAD_REACTORS
330
B6
102
}
330
B6
100
AcDbScale
 70
     0
300
1:8
140
1.0
141
8.0
290
     0
  0
SCALE
  5
128
102
{ACAD_REACTORS
330
B6
102
}
330
B6
100
AcDbScale
 70
     0
300
1:10
140
1.0
141
10.0
290
     0
  0
SCALE
  5
129
102
{ACAD_REACTORS
330
B6
102
}
330
B6
100
AcDbScale
 70
     0
300
1:16
140
1.0
141
16.0
290
     0
  0
SCALE
  5
12A
102
{ACAD_REACTORS
330
B6
102
}
330
B6
100
AcDbScale
 70
     0
300
1:20
140
1.0
141
20.0
290
     0
  0
SCALE
  5
12B
102
{ACAD_REACTORS
330
B6
102
}
330
B6
100
AcDbScale
 70
     0
300
1:30
140
1.0
141
30.0
290
     0
  0
SCALE
  5
12C
102
{ACAD_REACTORS
330
B6
102
}
330
B6
100
AcDbScale
 70
     0
300
1:40
140
1.0
141
40.0
290
     0
  0
SCALE
  5
12D
102
{ACAD_REACTORS
330
B6
102
}
330
B6
100
AcDbScale
 70
     0
300
1:50
140
1.0
141
50.0
290
     0
  0
SCALE
  5
12E
102
{ACAD_REACTORS
330
B6
102
}
330
B6
100
AcDbScale
 70
     0
300
1:100
140
1.0
141
100.0
290
     0
  0
SCALE
  5
12F
102
{ACAD_REACTORS
330
B6
102
}
330
B6
100
AcDbScale
 70
     0
300
2:1
140
2.0
141
1.0
290
     0
  0
SCALE
  5
130
102
{ACAD_REACTORS
330
B6
102
}
330
B6
100
AcDbScale
 70
     0
300
4:1
140
4.0
141
1.0
290
     0
  0
SCALE
  5
131
102
{ACAD_REACTORS
330
B6
102
}
330
B6
100
AcDbScale
 70
     0
300
8:1
140
8.0
141
1.0
290
     0
  0
SCALE
  5
132
102
{ACAD_REACTORS
330
B6
102
}
330
B6
100
AcDbScale
 70
     0
300
10:1
140
10.0
141
1.0
290
     0
  0
SCALE
  5
133
102
{ACAD_REACTORS
330
B6
102
}
330
B6
100
AcDbScale
 70
     0
300
100:1
140
100.0
141
1.0
290
     0
  0
SCALE
  5
134
102
{ACAD_REACTORS
330
B6
102
}
330
B6
100
AcDbScale
 70
     0
300
1/128" = 1'-0"
140
0.0078125
141
12.0
290
     0
  0
SCALE
  5
135
102
{ACAD_REACTORS
330
B6
102
}
330
B6
100
AcDbScale
 70
     0
300
1/64" = 1'-0"
140
0.015625
141
12.0
290
     0
  0
SCALE
  5
136
102
{ACAD_REACTORS
330
B6
102
}
330
B6
100
AcDbScale
 70
     0
300
1/32" = 1'-0"
140
0.03125
141
12.0
290
     0
  0
SCALE
  5
137
102
{ACAD_REACTORS
330
B6
102
}
330
B6
100
AcDbScale
 70
     0
300
1/16" = 1'-0"
140
0.0625
141
12.0
290
     0
  0
SCALE
  5
138
102
{ACAD_REACTORS
330
B6
102
}
330
B6
100
AcDbScale
 70
     0
300
3/32" = 1'-0"
140
0.09375
141
12.0
290
     0
  0
SCALE
  5
139
102
{ACAD_REACTORS
330
B6
102
}
330
B6
100
AcDbScale
 70
     0
300
1/8" = 1'-0"
140
0.125
141
12.0
290
     0
  0
SCALE
  5
13A
102
{ACAD_REACTORS
330
B6
102
}
330
B6
100
AcDbScale
 70
     0
300
3/16" = 1'-0"
140
0.1875
141
12.0
290
     0
  0
SCALE
  5
13B
102
{ACAD_REACTORS
330
B6
102
}
330
B6
100
AcDbScale
 70
     0
300
1/4" = 1'-0"
140
0.25
141
12.0
290
     0
  0
SCALE
  5
13C
102
{ACAD_REACTORS
330
B6
102
}
330
B6
100
AcDbScale
 70
     0
300
3/8" = 1'-0"
140
0.375
141
12.0
290
     0
  0
SCALE
  5
13D
102
{ACAD_REACTORS
330
B6
102
}
330
B6
100
AcDbScale
 70
     0
300
1/2" = 1'-0"
140
0.5
141
12.0
290
     0
  0
SCALE
  5
13E
102
{ACAD_REACTORS
330
B6
102
}
330
B6
100
AcDbScale
 70
     0
300
3/4" = 1'-0"
140
0.75
141
12.0
290
     0
  0
SCALE
  5
13F
102
{ACAD_REACTORS
330
B6
102
}
330
B6
100
AcDbScale
 70
     0
300
1" = 1'-0"
140
1.0
141
12.0
290
     0
  0
SCALE
  5
140
102
{ACAD_REACTORS
330
B6
102
}
330
B6
100
AcDbScale
 70
     0
300
1-1/2" = 1'-0"
140
1.5
141
12.0
290
     0
  0
SCALE
  5
141
102
{ACAD_REACTORS
330
B6
102
}
330
B6
100
AcDbScale
 70
     0
300
3" = 1'-0"
140
3.0
141
12.0
290
     0
  0
SCALE
  5
142
102
{ACAD_REACTORS
330
B6
102
}
330
B6
100
AcDbScale
 70
     0
300
6" = 1'-0"
140
6.0
141
12.0
290
     0
  0
SCALE
  5
143
102
{ACAD_REACTORS
330
B6
102
}
330
B6
100
AcDbScale
 70
     0
300
1'-0" = 1'-0"
140
12.0
141
12.0
290
     0
  0
ACDBSECTIONVIEWSTYLE
  5
1AA
102
{ACAD_REACTORS
330
1A8
102
}
330
1A8
100
AcDbModelDocViewStyle
 70
     0
  3
Imperial24
290
     0
300
Imperial24
 90
        0
100
AcDbSectionViewStyle
 70
     0
 71
     0
 90
       78
 71
     1
340
11
 62
   256
 40
0.24
340
0
340
0
 62
   256
 40
0.24
300
I, O, Q, S, X, Z
 40
0.48
 90
        3
 40
0.18
 90
        1
 71
     2
340
16
 90
       25
 62
   256
340
16
 90
       50
 62
   256
 40
0.24
 40
0.0
 40
0.24
 71
     3
340
11
 62
   256
 40
0.24
 90
        1
 40
0.75
 90
        1
300
%<\AcVar ViewType \f "%tc1">% %<\AcVar ViewSectionStartId>%-%<\AcVar ViewSectionEndId>%\PSCALE %<\AcVar ViewScale \f "%sn">%
 71
     4
 62
   256
 62
   257
300
ANSI31
 40
1.0
 90
        0
290
     0
290
     0
 90
        6
 40
0.0
 40
1.570796326794896
 40
0.2617993877991494
 40
1.308996938995747
 40
-0.2617993877991494
 40
1.832595714594046
  0
TABLESTYLE
  5
87
102
{ACAD_XDICTIONARY
360
104
102
}
102
{ACAD_REACTORS
330
86
102
}
330
86
100
AcDbTableStyle
280
     0
  3
Standard
 70
     0
 71
     0
 40
0.06
 41
0.06
280
     0
281
     0
  7
Standard
140
0.18
170
     2
 62
     0
 63
     7
283
     0
 90
      512
 91
        0
  1

274
    -2
284
     1
 64
     0
275
    -2
285
     1
 65
     0
276
    -2
286
     1
 66
     0
277
    -2
287
     1
 67
     0
278
    -2
288
     1
 68
     0
279
    -2
289
     1
 69
     0
  7
Standard
140
0.25
170
     5
 62
     0
 63
     7
283
     0
 90
      512
 91
        0
  1

274
    -2
284
     1
 64
     0
275
    -2
285
     1
 65
     0
276
    -2
286
     1
 66
     0
277
    -2
287
     1
 67
     0
278
    -2
288
     1
 68
     0
279
    -2
289
     1
 69
     0
  7
Standard
140
0.18
170
     5
 62
     0
 63
     7
283
     0
 90
      512
 91
        0
  1

274
    -2
284
     1
 64
     0
275
    -2
285
     1
 65
     0
276
    -2
286
     1
 66
     0
277
    -2
287
     1
 67
     0
278
    -2
288
     1
 68
     0
279
    -2
289
     1
 69
     0
  0
VISUALSTYLE
  5
9F
102
{ACAD_REACTORS
330
99
102
}
330
99
100
AcDbVisualStyle
  2
2dWireframe
 70
     4
177
     3
291
     0
 70
    58
 90
        0
176
     1
 90
        2
176
     1
 90
        1
176
     1
 90
        0
176
     1
 40
0.6
176
     1
 40
30.0
176
     1
 62
     7
420
 16777215
176
     1
 90
        1
176
     1
 90
        4
176
     1
 62
     7
176
     1
 62
   257
176
     1
 90
        1
176
     1
 90
        1
176
     1
 40
1.0
176
     1
 90
        0
176
     1
 62
   257
176
     1
 40
1.0
176
     1
 90
        1
176
     1
 90
        6
176
     1
 90
        2
176
     1
 62
     7
176
     1
 90
        5
176
     1
 90
        0
176
     1
 90
        0
176
     1
290
     0
176
     1
 90
        1
176
     1
 40
0.0
176
     1
 90
        0
176
     1
290
     1
176
     1
290
     1
176
     1
290
     0
176
     1
290
     0
176
     1
290
     0
176
     1
290
     0
176
     1
290
     0
176
     1
290
     0
176
     1
290
     0
176
     1
 90
       50
176
     1
 40
0.0
176
     1
 40
1.0
176
     1
 90
        0
176
     1
 62
    18
420
        0
176
     1
 90
       50
176
     1
 90
        3
176
     1
 62
     5
420
      255
176
     1
290
     0
176
     1
 90
       50
176
     1
 90
       50
176
     1
 90
       50
176
     1
290
     0
176
     1
 90
       50
176
     1
 62
   256
176
     0
 40
1.0
176
     0
 90
        2
176
     1
  1
strokes_ogs.tif
176
     1
290
     0
176
     1
 40
1.0
176
     1
 40
1.0
176
     1
  0
VISUALSTYLE
  5
9E
102
{ACAD_REACTORS
330
99
102
}
330
99
100
AcDbVisualStyle
  2
Basic
 70
     7
177
     3
291
     1
 70
    58
 90
        1
176
     1
 90
        0
176
     1
 90
        1
176
     1
 90
        0
176
     1
 40
0.6
176
     1
 40
30.0
176
     1
 62
     7
420
 16777215
176
     1
 90
        0
176
     1
 90
        4
176
     1
 62
     7
176
     1
 62
   257
176
     1
 90
        1
176
     1
 90
        1
176
     1
 40
1.0
176
     1
 90
        8
176
     1
 62
     7
176
     1
 40
1.0
176
     1
 90
        1
176
     1
 90
        6
176
     1
 90
        2
176
     1
 62
     7
176
     1
 90
        5
176
     1
 90
        0
176
     1
 90
        0
176
     1
290
     0
176
     1
 90
        1
176
     1
 40
0.0
176
     1
 90
        0
176
     1
290
     0
176
     1
290
     1
176
     1
290
     1
176
     1
290
     0
176
     1
290
     0
176
     1
290
     0
176
     1
290
     0
176
     1
290
     0
176
     1
290
     0
176
     1
 90
       50
176
     1
 40
0.0
176
     1
 40
1.0
176
     1
 90
        0
176
     1
 62
    18
420
        0
176
     1
 90
       50
176
     1
 90
        3
176
     1
 62
     5
420
      255
176
     1
290
     0
176
     1
 90
       50
176
     1
 90
       50
176
     1
 90
       50
176
     1
290
     0
176
     1
 90
       50
176
     1
 62
   256
176
     0
 40
1.0
176
     0
 90
        2
176
     1
  1
strokes_ogs.tif
176
     1
290
     0
176
     1
 40
1.0
176
     1
 40
1.0
176
     1
  0
VISUALSTYLE
  5
A5
102
{ACAD_REACTORS
330
99
102
}
330
99
100
AcDbVisualStyle
  2
Brighten
 70
    12
177
     3
291
     1
 70
    58
 90
        2
176
     1
 90
        2
176
     1
 90
        1
176
     1
 90
        0
176
     1
 40
0.6
176
     1
 40
30.0
176
     1
 62
     7
420
 16777215
176
     1
 90
        1
176
     1
 90
        4
176
     1
 62
     7
176
     1
 62
   257
176
     1
 90
        1
176
     1
 90
        1
176
     1
 40
1.0
176
     1
 90
        8
176
     1
 62
     7
176
     1
 40
1.0
176
     1
 90
        1
176
     1
 90
        6
176
     1
 90
        2
176
     1
 62
     7
176
     1
 90
        5
176
     1
 90
        0
176
     1
 90
        0
176
     1
290
     0
176
     1
 90
        1
176
     1
 40
50.0
176
     1
 90
        0
176
     1
290
     0
176
     1
290
     1
176
     1
290
     1
176
     1
290
     0
176
     1
290
     0
176
     1
290
     0
176
     1
290
     0
176
     1
290
     0
176
     1
290
     0
176
     1
 90
       50
176
     1
 40
0.0
176
     1
 40
1.0
176
     1
 90
        0
176
     1
 62
    18
420
        0
176
     1
 90
       50
176
     1
 90
        3
176
     1
 62
     5
420
      255
176
     1
290
     0
176
     1
 90
       50
176
     1
 90
       50
176
     1
 90
       50
176
     1
290
     0
176
     1
 90
       50
176
     1
 62
   256
176
     0
 40
1.0
176
     0
 90
        2
176
     1
  1
strokes_ogs.tif
176
     1
290
     0
176
     1
 40
1.0
176
     1
 40
1.0
176
     1
  0
VISUALSTYLE
  5
A9
102
{ACAD_REACTORS
330
99
102
}
330
99
100
AcDbVisualStyle
  2
ColorChange
 70
    16
177
     3
291
     1
 70
    58
 90
        2
176
     1
 90
        2
176
     1
 90
        3
176
     1
 90
        0
176
     1
 40
0.6
176
     1
 40
30.0
176
     1
 62
     8
420
  8421504
176
     1
 90
        1
176
     1
 90
        4
176
     1
 62
     7
176
     1
 62
   257
176
     1
 90
        1
176
     1
 90
        1
176
     1
 40
1.0
176
     1
 90
        8
176
     1
 62
     8
420
  8421504
176
     1
 40
1.0
176
     1
 90
        1
176
     1
 90
        6
176
     1
 90
        2
176
     1
 62
     7
176
     1
 90
        5
176
     1
 90
        0
176
     1
 90
        0
176
     1
290
     0
176
     1
 90
        1
176
     1
 40
0.0
176
     1
 90
        0
176
     1
290
     0
176
     1
290
     1
176
     1
290
     1
176
     1
290
     0
176
     1
290
     0
176
     1
290
     0
176
     1
290
     0
176
     1
290
     0
176
     1
290
     0
176
     1
 90
       50
176
     1
 40
0.0
176
     1
 40
1.0
176
     1
 90
        0
176
     1
 62
    18
420
        0
176
     1
 90
       50
176
     1
 90
        3
176
     1
 62
     5
420
      255
176
     1
290
     0
176
     1
 90
       50
176
     1
 90
       50
176
     1
 90
       50
176
     1
290
     0
176
     1
 90
       50
176
     1
 62
   256
176
     0
 40
1.0
176
     0
 90
        2
176
     1
  1
strokes_ogs.tif
176
     1
290
     0
176
     1
 40
1.0
176
     1
 40
1.0
176
     1
  0
VISUALSTYLE
  5
A2
102
{ACAD_REACTORS
330
99
102
}
330
99
100
AcDbVisualStyle
  2
Conceptual
 70
     9
177
     3
291
     0
 70
    58
 90
        3
176
     1
 90
        2
176
     1
 90
        1
176
     1
 90
        0
176
     1
 40
0.6
176
     1
 40
30.0
176
     1
 62
     7
420
 16777215
176
     1
 90
        2
176
     1
 90
        2
176
     1
 62
     7
176
     1
 62
   257
176
     1
 90
        1
176
     1
 90
        1
176
     1
 40
40.0
176
     1
 90
        8
176
     1
 62
     7
176
     1
 40
1.0
176
     1
 90
        1
176
     1
 90
        6
176
     1
 90
        2
176
     1
 62
     7
176
     1
 90
        3
176
     1
 90
        0
176
     1
 90
        0
176
     1
290
     0
176
     1
 90
        1
176
     1
 40
0.0
176
     1
 90
        0
176
     1
290
     0
176
     1
290
     1
176
     1
290
     1
176
     1
290
     0
176
     1
290
     0
176
     1
290
     0
176
     1
290
     0
176
     1
290
     0
176
     1
290
     0
176
     1
 90
       50
176
     1
 40
0.0
176
     1
 40
1.0
176
     1
 90
        0
176
     1
 62
    18
420
        0
176
     1
 90
       50
176
     1
 90
        3
176
     1
 62
     5
420
      255
176
     1
290
     0
176
     1
 90
       50
176
     1
 90
       50
176
     1
 90
       50
176
     1
290
     0
176
     1
 90
       50
176
     1
 62
   256
176
     0
 40
1.0
176
     0
 90
        2
176
     1
  1
strokes_ogs.tif
176
     1
290
     0
176
     1
 40
1.0
176
     1
 40
1.0
176
     1
  0
VISUALSTYLE
  5
A4
102
{ACAD_REACTORS
330
99
102
}
330
99
100
AcDbVisualStyle
  2
Dim
 70
    11
177
     3
291
     1
 70
    58
 90
        2
176
     1
 90
        2
176
     1
 90
        1
176
     1
 90
        0
176
     1
 40
0.6
176
     1
 40
30.0
176
     1
 62
     7
420
 16777215
176
     1
 90
        1
176
     1
 90
        4
176
     1
 62
     7
176
     1
 62
   257
176
     1
 90
        1
176
     1
 90
        1
176
     1
 40
1.0
176
     1
 90
        8
176
     1
 62
     7
176
     1
 40
1.0
176
     1
 90
        1
176
     1
 90
        6
176
     1
 90
        2
176
     1
 62
     7
176
     1
 90
        5
176
     1
 90
        0
176
     1
 90
        0
176
     1
290
     0
176
     1
 90
        1
176
     1
 40
-50.0
176
     1
 90
        0
176
     1
290
     0
176
     1
290
     1
176
     1
290
     1
176
     1
290
     0
176
     1
290
     0
176
     1
290
     0
176
     1
290
     0
176
     1
290
     0
176
     1
290
     0
176
     1
 90
       50
176
     1
 40
0.0
176
     1
 40
1.0
176
     1
 90
        0
176
     1
 62
    18
420
        0
176
     1
 90
       50
176
     1
 90
        3
176
     1
 62
     5
420
      255
176
     1
290
     0
176
     1
 90
       50
176
     1
 90
       50
176
     1
 90
       50
176
     1
290
     0
176
     1
 90
       50
176
     1
 62
   256
176
     0
 40
1.0
176
     0
 90
        2
176
     1
  1
strokes_ogs.tif
176
     1
290
     0
176
     1
 40
1.0
176
     1
 40
1.0
176
     1
  0
VISUALSTYLE
  5
175
102
{ACAD_REACTORS
330
99
102
}
330
99
100
AcDbVisualStyle
  2
EdgeColorOff
 70
    22
177
     3
291
     1
 70
    58
 90
        2
176
     0
 90
        2
176
     0
 90
        0
176
     0
 90
        0
176
     0
 40
0.6
176
     0
 40
30.0
176
     0
 62
     7
420
 16777215
176
     0
 90
        1
176
     0
 90
        4
176
     0
 62
     7
176
     0
 62
   257
176
     0
 90
        1
176
     0
 90
        1
176
     0
 40
1.0
176
     0
 90
        8
176
     2
 62
     7
176
     0
 40
1.0
176
     0
 90
        1
176
     0
 90
        6
176
     0
 90
        2
176
     0
 62
     7
176
     0
 90
        5
176
     0
 90
        0
176
     0
 90
        0
176
     0
290
     0
176
     0
 90
        1
176
     0
 40
0.0
176
     0
 90
        0
176
     0
290
     0
176
     1
290
     1
176
     1
290
     1
176
     1
290
     0
176
     1
290
     0
176
     1
290
     0
176
     1
290
     0
176
     1
290
     0
176
     1
290
     0
176
     1
 90
       50
176
     1
 40
0.0
176
     1
 40
1.0
176
     1
 90
        0
176
     1
 62
    18
420
        0
176
     1
 90
       50
176
     1
 90
        3
176
     1
 62
     5
420
      255
176
     1
290
     0
176
     1
 90
       50
176
     1
 90
       50
176
     1
 90
       50
176
     1
290
     0
176
     1
 90
       50
176
     1
 62
   256
176
     0
 40
1.0
176
     0
 90
        2
176
     1
  1
strokes_ogs.tif
176
     1
290
     0
176
     1
 40
1.0
176
     1
 40
1.0
176
     1
  0
VISUALSTYLE
  5
A8
102
{ACAD_REACTORS
330
99
102
}
330
99
100
AcDbVisualStyle
  2
Facepattern
 70
    15
177
     3
291
     1
 70
    58
 90
        2
176
     1
 90
        2
176
     1
 90
        1
176
     1
 90
        0
176
     1
 40
0.6
176
     1
 40
30.0
176
     1
 62
     7
420
 16777215
176
     1
 90
        1
176
     1
 90
        4
176
     1
 62
     7
176
     1
 62
   257
176
     1
 90
        1
176
     1
 90
        1
176
     1
 40
1.0
176
     1
 90
        8
176
     1
 62
     7
176
     1
 40
1.0
176
     1
 90
        1
176
     1
 90
        6
176
     1
 90
        2
176
     1
 62
     7
176
     1
 90
        5
176
     1
 90
        0
176
     1
 90
        0
176
     1
290
     0
176
     1
 90
        1
176
     1
 40
0.0
176
     1
 90
        0
176
     1
290
     0
176
     1
290
     1
176
     1
290
     1
176
     1
290
     0
176
     1
290
     0
176
     1
290
     0
176
     1
290
     0
176
     1
290
     0
176
     1
290
     0
176
     1
 90
       50
176
     1
 40
0.0
176
     1
 40
1.0
176
     1
 90
        0
176
     1
 62
    18
420
        0
176
     1
 90
       50
176
     1
 90
        3
176
     1
 62
     5
420
      255
176
     1
290
     0
176
     1
 90
       50
176
     1
 90
       50
176
     1
 90
       50
176
     1
290
     0
176
     1
 90
       50
176
     1
 62
   256
176
     0
 40
1.0
176
     0
 90
        2
176
     1
  1
strokes_ogs.tif
176
     1
290
     0
176
     1
 40
1.0
176
     1
 40
1.0
176
     1
  0
VISUALSTYLE
  5
9A
102
{ACAD_REACTORS
330
99
102
}
330
99
100
AcDbVisualStyle
  2
Flat
 70
     0
177
     3
291
     1
 70
    58
 90
        2
176
     1
 90
        1
176
     1
 90
        1
176
     1
 90
        2
176
     1
 40
0.6
176
     1
 40
30.0
176
     1
 62
     7
420
 16777215
176
     1
 90
        0
176
     1
 90
        0
176
     1
 62
     7
176
     1
 62
   257
176
     1
 90
        1
176
     1
 90
        1
176
     1
 40
1.0
176
     1
 90
        8
176
     1
 62
     7
176
     1
 40
1.0
176
     1
 90
        1
176
     1
 90
        6
176
     1
 90
        2
176
     1
 62
     7
176
     1
 90
        5
176
     1
 90
        0
176
     1
 90
        0
176
     1
290
     0
176
     1
 90
       13
176
     1
 40
0.0
176
     1
 90
        0
176
     1
290
     0
176
     1
290
     1
176
     1
290
     1
176
     1
290
     0
176
     1
290
     0
176
     1
290
     0
176
     1
290
     0
176
     1
290
     0
176
     1
290
     0
176
     1
 90
       50
176
     1
 40
0.0
176
     1
 40
1.0
176
     1
 90
        0
176
     1
 62
    18
420
        0
176
     1
 90
       50
176
     1
 90
        3
176
     1
 62
     5
420
      255
176
     1
290
     0
176
     1
 90
       50
176
     1
 90
       50
176
     1
 90
       50
176
     1
290
     0
176
     1
 90
       50
176
     1
 62
   256
176
     0
 40
1.0
176
     0
 90
        2
176
     1
  1
strokes_ogs.tif
176
     1
290
     0
176
     1
 40
1.0
176
     1
 40
1.0
176
     1
  0
VISUALSTYLE
  5
9B
102
{ACAD_REACTORS
330
99
102
}
330
99
100
AcDbVisualStyle
  2
FlatWithEdges
 70
     1
177
     3
291
     1
 70
    58
 90
        2
176
     1
 90
        1
176
     1
 90
        1
176
     1
 90
        2
176
     1
 40
0.6
176
     1
 40
30.0
176
     1
 62
     7
420
 16777215
176
     1
 90
        1
176
     1
 90
        0
176
     1
 62
     7
176
     1
 62
   257
176
     1
 90
        1
176
     1
 90
        1
176
     1
 40
1.0
176
     1
 90
        0
176
     1
 62
   257
176
     1
 40
1.0
176
     1
 90
        1
176
     1
 90
        6
176
     1
 90
        2
176
     1
 62
     7
176
     1
 90
        5
176
     1
 90
        0
176
     1
 90
        0
176
     1
290
     0
176
     1
 90
       13
176
     1
 40
0.0
176
     1
 90
        0
176
     1
290
     0
176
     1
290
     1
176
     1
290
     1
176
     1
290
     0
176
     1
290
     0
176
     1
290
     0
176
     1
290
     0
176
     1
290
     0
176
     1
290
     0
176
     1
 90
       50
176
     1
 40
0.0
176
     1
 40
1.0
176
     1
 90
        0
176
     1
 62
    18
420
        0
176
     1
 90
       50
176
     1
 90
        3
176
     1
 62
     5
420
      255
176
     1
290
     0
176
     1
 90
       50
176
     1
 90
       50
176
     1
 90
       50
176
     1
290
     0
176
     1
 90
       50
176
     1
 62
   256
176
     0
 40
1.0
176
     0
 90
        2
176
     1
  1
strokes_ogs.tif
176
     1
290
     0
176
     1
 40
1.0
176
     1
 40
1.0
176
     1
  0
VISUALSTYLE
  5
9C
102
{ACAD_REACTORS
330
99
102
}
330
99
100
AcDbVisualStyle
  2
Gouraud
 70
     2
177
     3
291
     1
 70
    58
 90
        2
176
     1
 90
        2
176
     1
 90
        1
176
     1
 90
        2
176
     1
 40
0.6
176
     1
 40
30.0
176
     1
 62
     7
420
 16777215
176
     1
 90
        0
176
     1
 90
        0
176
     1
 62
     7
176
     1
 62
   257
176
     1
 90
        1
176
     1
 90
        1
176
     1
 40
1.0
176
     1
 90
        0
176
     1
 62
     7
176
     1
 40
1.0
176
     1
 90
        1
176
     1
 90
        6
176
     1
 90
        2
176
     1
 62
     7
176
     1
 90
        5
176
     1
 90
        0
176
     1
 90
        0
176
     1
290
     0
176
     1
 90
       13
176
     1
 40
0.0
176
     1
 90
        0
176
     1
290
     0
176
     1
290
     1
176
     1
290
     1
176
     1
290
     0
176
     1
290
     0
176
     1
290
     0
176
     1
290
     0
176
     1
290
     0
176
     1
290
     0
176
     1
 90
       50
176
     1
 40
0.0
176
     1
 40
1.0
176
     1
 90
        0
176
     1
 62
    18
420
        0
176
     1
 90
       50
176
     1
 90
        3
176
     1
 62
     5
420
      255
176
     1
290
     0
176
     1
 90
       50
176
     1
 90
       50
176
     1
 90
       50
176
     1
290
     0
176
     1
 90
       50
176
     1
 62
   256
176
     0
 40
1.0
176
     0
 90
        2
176
     1
  1
strokes_ogs.tif
176
     1
290
     0
176
     1
 40
1.0
176
     1
 40
1.0
176
     1
  0
VISUALSTYLE
  5
9D
102
{ACAD_REACTORS
330
99
102
}
330
99
100
AcDbVisualStyle
  2
GouraudWithEdges
 70
     3
177
     3
291
     1
 70
    58
 90
        2
176
     1
 90
        2
176
     1
 90
        1
176
     1
 90
        2
176
     1
 40
0.6
176
     1
 40
30.0
176
     1
 62
     7
420
 16777215
176
     1
 90
        1
176
     1
 90
        0
176
     1
 62
     7
176
     1
 62
   257
176
     1
 90
        1
176
     1
 90
        1
176
     1
 40
1.0
176
     1
 90
        0
176
     1
 62
   257
176
     1
 40
1.0
176
     1
 90
        1
176
     1
 90
        6
176
     1
 90
        2
176
     1
 62
     7
176
     1
 90
        5
176
     1
 90
        0
176
     1
 90
        0
176
     1
290
     0
176
     1
 90
       13
176
     1
 40
0.0
176
     1
 90
        0
176
     1
290
     0
176
     1
290
     1
176
     1
290
     1
176
     1
290
     0
176
     1
290
     0
176
     1
290
     0
176
     1
290
     0
176
     1
290
     0
176
     1
290
     0
176
     1
 90
       50
176
     1
 40
0.0
176
     1
 40
1.0
176
     1
 90
        0
176
     1
 62
    18
420
        0
176
     1
 90
       50
176
     1
 90
        3
176
     1
 62
     5
420
      255
176
     1
290
     0
176
     1
 90
       50
176
     1
 90
       50
176
     1
 90
       50
176
     1
290
     0
176
     1
 90
       50
176
     1
 62
   256
176
     0
 40
1.0
176
     0
 90
        2
176
     1
  1
strokes_ogs.tif
176
     1
290
     0
176
     1
 40
1.0
176
     1
 40
1.0
176
     1
  0
VISUALSTYLE
  5
A1
102
{ACAD_REACTORS
330
99
102
}
330
99
100
AcDbVisualStyle
  2
Hidden
 70
     6
177
     3
291
     0
 70
    58
 90
        1
176
     1
 90
        2
176
     1
 90
        2
176
     1
 90
        0
176
     1
 40
0.6
176
     1
 40
30.0
176
     1
 62
     7
420
 16777215
176
     1
 90
        2
176
     1
 90
        2
176
     1
 62
     7
176
     1
 62
   257
176
     1
 90
        2
176
     1
 90
        1
176
     1
 40
40.0
176
     1
 90
        0
176
     1
 62
   257
176
     1
 40
1.0
176
     1
 90
        1
176
     1
 90
        6
176
     1
 90
        2
176
     1
 62
     7
176
     1
 90
        3
176
     1
 90
        0
176
     1
 90
        0
176
     1
290
     0
176
     1
 90
        1
176
     1
 40
0.0
176
     1
 90
        0
176
     1
290
     0
176
     1
290
     1
176
     1
290
     1
176
     1
290
     0
176
     1
290
     0
176
     1
290
     0
176
     1
290
     0
176
     1
290
     0
176
     1
290
     0
176
     1
 90
       50
176
     1
 40
0.0
176
     1
 40
1.0
176
     1
 90
        0
176
     1
 62
    18
420
        0
176
     1
 90
       50
176
     1
 90
        3
176
     1
 62
     5
420
      255
176
     1
290
     0
176
     1
 90
       50
176
     1
 90
       50
176
     1
 90
       50
176
     1
290
     0
176
     1
 90
       50
176
     1
 62
   256
176
     0
 40
1.0
176
     0
 90
        2
176
     1
  1
strokes_ogs.tif
176
     1
290
     0
176
     1
 40
1.0
176
     1
 40
1.0
176
     1
  0
VISUALSTYLE
  5
173
102
{ACAD_REACTORS
330
99
102
}
330
99
100
AcDbVisualStyle
  2
JitterOff
 70
    20
177
     3
291
     1
 70
    58
 90
        2
176
     0
 90
        2
176
     0
 90
        0
176
     0
 90
        0
176
     0
 40
0.6
176
     0
 40
30.0
176
     0
 62
     7
420
 16777215
176
     0
 90
        1
176
     0
 90
        4
176
     0
 62
     7
176
     0
 62
   257
176
     0
 90
        1
176
     0
 90
        1
176
     0
 40
1.0
176
     0
 90
       10
176
     2
 62
     7
176
     0
 40
1.0
176
     0
 90
        1
176
     0
 90
        6
176
     0
 90
        2
176
     0
 62
     7
176
     0
 90
        5
176
     0
 90
        0
176
     0
 90
        0
176
     0
290
     0
176
     0
 90
        1
176
     0
 40
0.0
176
     0
 90
        0
176
     0
290
     0
176
     1
290
     1
176
     1
290
     1
176
     1
290
     0
176
     1
290
     0
176
     1
290
     0
176
     1
290
     0
176
     1
290
     0
176
     1
290
     0
176
     1
 90
       50
176
     1
 40
0.0
176
     1
 40
1.0
176
     1
 90
        0
176
     1
 62
    18
420
        0
176
     1
 90
       50
176
     1
 90
        3
176
     1
 62
     5
420
      255
176
     1
290
     0
176
     1
 90
       50
176
     1
 90
       50
176
     1
 90
       50
176
     1
290
     0
176
     1
 90
       50
176
     1
 62
   256
176
     0
 40
1.0
176
     0
 90
        2
176
     1
  1
strokes_ogs.tif
176
     1
290
     0
176
     1
 40
1.0
176
     1
 40
1.0
176
     1
  0
VISUALSTYLE
  5
A7
102
{ACAD_REACTORS
330
99
102
}
330
99
100
AcDbVisualStyle
  2
Linepattern
 70
    14
177
     3
291
     1
 70
    58
 90
        2
176
     1
 90
        2
176
     1
 90
        1
176
     1
 90
        0
176
     1
 40
0.6
176
     1
 40
30.0
176
     1
 62
     7
420
 16777215
176
     1
 90
        1
176
     1
 90
        4
176
     1
 62
     7
176
     1
 62
   257
176
     1
 90
        7
176
     1
 90
        7
176
     1
 40
1.0
176
     1
 90
        8
176
     1
 62
     7
176
     1
 40
1.0
176
     1
 90
        1
176
     1
 90
        6
176
     1
 90
        2
176
     1
 62
     7
176
     1
 90
        5
176
     1
 90
        0
176
     1
 90
        0
176
     1
290
     0
176
     1
 90
        1
176
     1
 40
0.0
176
     1
 90
        0
176
     1
290
     0
176
     1
290
     1
176
     1
290
     1
176
     1
290
     0
176
     1
290
     0
176
     1
290
     0
176
     1
290
     0
176
     1
290
     0
176
     1
290
     0
176
     1
 90
       50
176
     1
 40
0.0
176
     1
 40
1.0
176
     1
 90
        0
176
     1
 62
    18
420
        0
176
     1
 90
       50
176
     1
 90
        3
176
     1
 62
     5
420
      255
176
     1
290
     0
176
     1
 90
       50
176
     1
 90
       50
176
     1
 90
       50
176
     1
290
     0
176
     1
 90
       50
176
     1
 62
   256
176
     0
 40
1.0
176
     0
 90
        2
176
     1
  1
strokes_ogs.tif
176
     1
290
     0
176
     1
 40
1.0
176
     1
 40
1.0
176
     1
  0
VISUALSTYLE
  5
174
102
{ACAD_REACTORS
330
99
102
}
330
99
100
AcDbVisualStyle
  2
OverhangOff
 70
    21
177
     3
291
     1
 70
    58
 90
        2
176
     0
 90
        2
176
     0
 90
        0
176
     0
 90
        0
176
     0
 40
0.6
176
     0
 40
30.0
176
     0
 62
     7
420
 16777215
176
     0
 90
        1
176
     0
 90
        4
176
     0
 62
     7
176
     0
 62
   257
176
     0
 90
        1
176
     0
 90
        1
176
     0
 40
1.0
176
     0
 90
        9
176
     2
 62
     7
176
     0
 40
1.0
176
     0
 90
        1
176
     0
 90
        6
176
     0
 90
        2
176
     0
 62
     7
176
     0
 90
        5
176
     0
 90
        0
176
     0
 90
        0
176
     0
290
     0
176
     0
 90
        1
176
     0
 40
0.0
176
     0
 90
        0
176
     0
290
     0
176
     1
290
     1
176
     1
290
     1
176
     1
290
     0
176
     1
290
     0
176
     1
290
     0
176
     1
290
     0
176
     1
290
     0
176
     1
290
     0
176
     1
 90
       50
176
     1
 40
0.0
176
     1
 40
1.0
176
     1
 90
        0
176
     1
 62
    18
420
        0
176
     1
 90
       50
176
     1
 90
        3
176
     1
 62
     5
420
      255
176
     1
290
     0
176
     1
 90
       50
176
     1
 90
       50
176
     1
 90
       50
176
     1
290
     0
176
     1
 90
       50
176
     1
 62
   256
176
     0
 40
1.0
176
     0
 90
        2
176
     1
  1
strokes_ogs.tif
176
     1
290
     0
176
     1
 40
1.0
176
     1
 40
1.0
176
     1
  0
VISUALSTYLE
  5
A3
102
{ACAD_REACTORS
330
99
102
}
330
99
100
AcDbVisualStyle
  2
Realistic
 70
     8
177
     3
291
     0
 70
    58
 90
        2
176
     1
 90
        3
176
     1
 90
        0
176
     1
 90
        2
176
     1
 40
0.6
176
     1
 40
30.0
176
     1
 62
     7
420
 16777215
176
     1
 90
        0
176
     1
 90
        0
176
     1
 62
     7
176
     1
 62
   257
176
     1
 90
        1
176
     1
 90
        1
176
     1
 40
1.0
176
     1
 90
        8
176
     1
 62
   257
176
     1
 40
1.0
176
     1
 90
        1
176
     1
 90
        6
176
     1
 90
        2
176
     1
 62
     7
176
     1
 90
        3
176
     1
 90
        0
176
     1
 90
        0
176
     1
290
     0
176
     1
 90
       13
176
     1
 40
0.0
176
     1
 90
        0
176
     1
290
     0
176
     1
290
     1
176
     1
290
     1
176
     1
290
     0
176
     1
290
     0
176
     1
290
     0
176
     1
290
     0
176
     1
290
     0
176
     1
290
     0
176
     1
 90
       50
176
     1
 40
0.0
176
     1
 40
1.0
176
     1
 90
        0
176
     1
 62
    18
420
        0
176
     1
 90
       50
176
     1
 90
        3
176
     1
 62
     5
420
      255
176
     1
290
     0
176
     1
 90
       50
176
     1
 90
       50
176
     1
 90
       50
176
     1
290
     0
176
     1
 90
       50
176
     1
 62
   256
176
     0
 40
1.0
176
     0
 90
        2
176
     1
  1
strokes_ogs.tif
176
     1
290
     0
176
     1
 40
1.0
176
     1
 40
1.0
176
     1
  0
VISUALSTYLE
  5
182
102
{ACAD_REACTORS
330
99
102
}
330
99
100
AcDbVisualStyle
  2
Shaded
 70
    27
177
     3
291
     0
 70
    58
 90
        2
176
     1
 90
        2
176
     1
 90
        1
176
     1
 90
        2
176
     1
 40
0.6
176
     1
 40
30.0
176
     1
 62
     7
420
 16777215
176
     1
 90
        0
176
     1
 90
        4
176
     1
 62
     7
176
     1
 62
   257
176
     1
 90
        1
176
     1
 90
        1
176
     1
 40
1.0
176
     1
 90
        8
176
     1
 62
   257
176
     1
 40
1.0
176
     1
 90
        1
176
     1
 90
        6
176
     1
 90
        2
176
     1
 62
     8
420
  7895160
176
     1
 90
        3
176
     1
 90
        0
176
     1
 90
        0
176
     1
290
     0
176
     1
 90
        5
176
     1
 40
0.0
176
     1
 90
        0
176
     1
290
     0
176
     1
290
     1
176
     1
290
     1
176
     1
290
     0
176
     1
290
     0
176
     1
290
     0
176
     1
290
     0
176
     1
290
     0
176
     1
290
     0
176
     1
 90
       50
176
     1
 40
0.0
176
     1
 40
1.0
176
     1
 90
        0
176
     1
 62
    18
420
        0
176
     1
 90
       50
176
     1
 90
        3
176
     1
 62
     5
420
      255
176
     1
290
     0
176
     1
 90
       50
176
     1
 90
       50
176
     1
 90
       50
176
     1
290
     0
176
     1
 90
       50
176
     1
 62
   256
176
     0
 40
1.0
176
     0
 90
        2
176
     1
  1
strokes_ogs.tif
176
     1
290
     0
176
     1
 40
1.0
176
     1
 40
1.0
176
     1
  0
VISUALSTYLE
  5
181
102
{ACAD_REACTORS
330
99
102
}
330
99
100
AcDbVisualStyle
  2
Shaded with edges
 70
    26
177
     3
291
     0
 70
    58
 90
        2
176
     1
 90
        2
176
     1
 90
        1
176
     1
 90
        2
176
     1
 40
0.6
176
     1
 40
30.0
176
     1
 62
     7
420
 16777215
176
     1
 90
        1
176
     1
 90
        2
176
     1
 62
     7
176
     1
 62
   257
176
     1
 90
        2
176
     1
 90
        1
176
     1
 40
1.0
176
     1
 90
        8
176
     1
 62
   257
176
     1
 40
1.0
176
     1
 90
        1
176
     1
 90
        6
176
     1
 90
        2
176
     1
 62
     7
176
     1
 90
        3
176
     1
 90
        0
176
     1
 90
        0
176
     1
290
     0
176
     1
 90
        5
176
     1
 40
0.0
176
     1
 90
        0
176
     1
290
     0
176
     1
290
     1
176
     1
290
     1
176
     1
290
     0
176
     1
290
     0
176
     1
290
     0
176
     1
290
     0
176
     1
290
     0
176
     1
290
     0
176
     1
 90
       50
176
     1
 40
0.0
176
     1
 40
1.0
176
     1
 90
        0
176
     1
 62
    18
420
        0
176
     1
 90
       50
176
     1
 90
        3
176
     1
 62
     5
420
      255
176
     1
290
     0
176
     1
 90
       50
176
     1
 90
       50
176
     1
 90
       50
176
     1
290
     0
176
     1
 90
       50
176
     1
 62
   256
176
     0
 40
1.0
176
     0
 90
        2
176
     1
  1
strokes_ogs.tif
176
     1
290
     0
176
     1
 40
1.0
176
     1
 40
1.0
176
     1
  0
VISUALSTYLE
  5
17E
102
{ACAD_REACTORS
330
99
102
}
330
99
100
AcDbVisualStyle
  2
Shades of Gray
 70
    23
177
     3
291
     0
 70
    58
 90
        2
176
     1
 90
        2
176
     1
 90
        3
176
     1
 90
        0
176
     1
 40
0.6
176
     1
 40
30.0
176
     1
 62
     7
420
 16777215
176
     1
 90
        2
176
     1
 90
        2
176
     1
 62
     7
176
     1
 62
     7
176
     1
 90
        1
176
     1
 90
        1
176
     1
 40
40.0
176
     1
 90
        8
176
     1
 62
     7
176
     1
 40
1.0
176
     1
 90
        1
176
     1
 90
        6
176
     1
 90
        2
176
     1
 62
     7
176
     1
 90
        3
176
     1
 90
        0
176
     1
 90
        0
176
     1
290
     0
176
     1
 90
        1
176
     1
 40
0.0
176
     1
 90
        0
176
     1
290
     0
176
     1
290
     1
176
     1
290
     1
176
     1
290
     0
176
     1
290
     0
176
     1
290
     0
176
     1
290
     0
176
     1
290
     0
176
     1
290
     0
176
     1
 90
       50
176
     1
 40
0.0
176
     1
 40
1.0
176
     1
 90
        0
176
     1
 62
    18
420
        0
176
     1
 90
       50
176
     1
 90
        3
176
     1
 62
     5
420
      255
176
     1
290
     0
176
     1
 90
       50
176
     1
 90
       50
176
     1
 90
       50
176
     1
290
     0
176
     1
 90
       50
176
     1
 62
   256
176
     0
 40
1.0
176
     0
 90
        2
176
     1
  1
strokes_ogs.tif
176
     1
290
     0
176
     1
 40
1.0
176
     1
 40
1.0
176
     1
  0
VISUALSTYLE
  5
17F
102
{ACAD_REACTORS
330
99
102
}
330
99
100
AcDbVisualStyle
  2
Sketchy
 70
    24
177
     3
291
     0
 70
    58
 90
        1
176
     1
 90
        2
176
     1
 90
        2
176
     1
 90
        0
176
     1
 40
0.6
176
     1
 40
30.0
176
     1
 62
     7
420
 16777215
176
     1
 90
        2
176
     1
 90
        2
176
     1
 62
     7
176
     1
 62
     7
176
     1
 90
        1
176
     1
 90
        1
176
     1
 40
40.0
176
     1
 90
       11
176
     1
 62
     7
176
     1
 40
1.0
176
     1
 90
        1
176
     1
 90
        6
176
     1
 90
        2
176
     1
 62
     7
176
     1
 90
        6
176
     1
 90
        0
176
     1
 90
        0
176
     1
290
     0
176
     1
 90
        1
176
     1
 40
0.0
176
     1
 90
        0
176
     1
290
     0
176
     1
290
     1
176
     1
290
     1
176
     1
290
     0
176
     1
290
     0
176
     1
290
     0
176
     1
290
     0
176
     1
290
     0
176
     1
290
     0
176
     1
 90
       50
176
     1
 40
0.0
176
     1
 40
1.0
176
     1
 90
        0
176
     1
 62
    18
420
        0
176
     1
 90
       50
176
     1
 90
        3
176
     1
 62
     5
420
      255
176
     1
290
     0
176
     1
 90
       50
176
     1
 90
       50
176
     1
 90
       50
176
     1
290
     0
176
     1
 90
       50
176
     1
 62
   256
176
     0
 40
1.0
176
     0
 90
        2
176
     1
  1
strokes_ogs.tif
176
     1
290
     0
176
     1
 40
1.0
176
     1
 40
1.0
176
     1
  0
VISUALSTYLE
  5
A6
102
{ACAD_REACTORS
330
99
102
}
330
99
100
AcDbVisualStyle
  2
Thicken
 70
    13
177
     3
291
     1
 70
    58
 90
        2
176
     1
 90
        2
176
     1
 90
        1
176
     1
 90
        0
176
     1
 40
0.6
176
     1
 40
30.0
176
     1
 62
     7
420
 16777215
176
     1
 90
        1
176
     1
 90
        4
176
     1
 62
     7
176
     1
 62
   257
176
     1
 90
        1
176
     1
 90
        1
176
     1
 40
1.0
176
     1
 90
       12
176
     1
 62
     7
176
     1
 40
1.0
176
     1
 90
        1
176
     1
 90
        6
176
     1
 90
        2
176
     1
 62
     7
176
     1
 90
        5
176
     1
 90
        0
176
     1
 90
        0
176
     1
290
     0
176
     1
 90
        1
176
     1
 40
0.0
176
     1
 90
        0
176
     1
290
     0
176
     1
290
     1
176
     1
290
     1
176
     1
290
     0
176
     1
290
     0
176
     1
290
     0
176
     1
290
     0
176
     1
290
     0
176
     1
290
     0
176
     1
 90
       50
176
     1
 40
0.0
176
     1
 40
1.0
176
     1
 90
        0
176
     1
 62
    18
420
        0
176
     1
 90
       50
176
     1
 90
        3
176
     1
 62
     5
420
      255
176
     1
290
     0
176
     1
 90
       50
176
     1
 90
       50
176
     1
 90
       50
176
     1
290
     0
176
     1
 90
       50
176
     1
 62
   256
176
     0
 40
1.0
176
     0
 90
        2
176
     1
  1
strokes_ogs.tif
176
     1
290
     0
176
     1
 40
1.0
176
     1
 40
1.0
176
     1
  0
VISUALSTYLE
  5
A0
102
{ACAD_REACTORS
330
99
102
}
330
99
100
AcDbVisualStyle
  2
Wireframe
 70
     5
177
     3
291
     0
 70
    58
 90
        0
176
     1
 90
        2
176
     1
 90
        0
176
     1
 90
        0
176
     1
 40
0.6
176
     1
 40
30.0
176
     1
 62
     7
420
 16777215
176
     1
 90
        1
176
     1
 90
        4
176
     1
 62
     7
176
     1
 62
   257
176
     1
 90
        1
176
     1
 90
        1
176
     1
 40
1.0
176
     1
 90
        0
176
     1
 62
   257
176
     1
 40
1.0
176
     1
 90
        1
176
     1
 90
        6
176
     1
 90
        2
176
     1
 62
     7
176
     1
 90
        3
176
     1
 90
        0
176
     1
 90
        0
176
     1
290
     0
176
     1
 90
        1
176
     1
 40
0.0
176
     1
 90
        0
176
     1
290
     0
176
     1
290
     1
176
     1
290
     1
176
     1
290
     0
176
     1
290
     0
176
     1
290
     0
176
     1
290
     0
176
     1
290
     0
176
     1
290
     0
176
     1
 90
       50
176
     1
 40
0.0
176
     1
 40
1.0
176
     1
 90
        0
176
     1
 62
    18
420
        0
176
     1
 90
       50
176
     1
 90
        3
176
     1
 62
     5
420
      255
176
     1
290
     0
176
     1
 90
       50
176
     1
 90
       50
176
     1
 90
       50
176
     1
290
     0
176
     1
 90
       50
176
     1
 62
   256
176
     0
 40
1.0
176
     0
 90
        2
176
     1
  1
strokes_ogs.tif
176
     1
290
     0
176
     1
 40
1.0
176
     1
 40
1.0
176
     1
  0
VISUALSTYLE
  5
180
102
{ACAD_REACTORS
330
99
102
}
330
99
100
AcDbVisualStyle
  2
X-Ray
 70
    25
177
     3
291
     0
 70
    58
 90
        2
176
     1
 90
        2
176
     1
 90
        1
176
     1
 90
        1
176
     1
 40
0.5
176
     1
 40
30.0
176
     1
 62
     7
420
 16777215
176
     1
 90
        1
176
     1
 90
        0
176
     1
 62
     7
176
     1
 62
   257
176
     1
 90
        1
176
     1
 90
        1
176
     1
 40
1.0
176
     1
 90
        8
176
     1
 62
     7
176
     1
 40
1.0
176
     1
 90
        1
176
     1
 90
        6
176
     1
 90
        2
176
     1
 62
     7
176
     1
 90
        3
176
     1
 90
        0
176
     1
 90
        0
176
     1
290
     0
176
     1
 90
       13
176
     1
 40
0.0
176
     1
 90
        0
176
     1
290
     0
176
     1
290
     1
176
     1
290
     1
176
     1
290
     0
176
     1
290
     0
176
     1
290
     0
176
     1
290
     0
176
     1
290
     0
176
     1
290
     0
176
     1
 90
       50
176
     1
 40
0.0
176
     1
 40
1.0
176
     1
 90
        0
176
     1
 62
    18
420
        0
176
     1
 90
       50
176
     1
 90
        3
176
     1
 62
     5
420
      255
176
     1
290
     0
176
     1
 90
       50
176
     1
 90
       50
176
     1
 90
       50
176
     1
290
     0
176
     1
 90
       50
176
     1
 62
   256
176
     0
 40
1.0
176
     0
 90
        2
176
     1
  1
strokes_ogs.tif
176
     1
290
     0
176
     1
 40
1.0
176
     1
 40
1.0
176
     1
  0
DICTIONARYVAR
  5
F0
102
{ACAD_REACTORS
330
66
102
}
330
66
100
DictionaryVariables
280
     0
  1
1:1
  0
DICTIONARYVAR
  5
EF
102
{ACAD_REACTORS
330
66
102
}
330
66
100
DictionaryVariables
280
     0
  1
STANDARD
  0
DICTIONARYVAR
  5
89
102
{ACAD_REACTORS
330
66
102
}
330
66
100
DictionaryVariables
280
     0
  1
STANDARD
  0
DICTIONARYVAR
  5
1B7
102
{ACAD_REACTORS
330
66
102
}
330
66
100
DictionaryVariables
280
     0
  1
Imperial24
  0
DICTIONARYVAR
  5
1B8
102
{ACAD_REACTORS
330
66
102
}
330
66
100
DictionaryVariables
280
     0
  1
Imperial24
  0
DICTIONARYVAR
  5
67
102
{ACAD_REACTORS
330
66
102
}
330
66
100
DictionaryVariables
280
     0
  1
2
  0
DICTIONARYVAR
  5
6B
102
{ACAD_REACTORS
330
66
102
}
330
66
100
DictionaryVariables
280
     0
  1
1
  0
DICTIONARYVAR
  5
14D
102
{ACAD_REACTORS
330
66
102
}
330
66
100
DictionaryVariables
280
     0
  1
0
  0
DICTIONARYVAR
  5
14E
102
{ACAD_REACTORS
330
66
102
}
330
66
100
DictionaryVariables
280
     0
  1
0
  0
DICTIONARY
  5
367
102
{ACAD_REACTORS
330
366
102
}
330
366
100
AcDbDictionary
281
     1
  0
DICTIONARY
  5
194
330
22
100
AcDbDictionary
280
     1
281
     1
  0
DICTIONARY
  5
188
330
97
100
AcDbDictionary
280
     1
281
     1
  3
FBXASSET
360
189
  0
DICTIONARY
  5
186
330
96
100
AcDbDictionary
280
     1
281
     1
  3
FBXASSET
360
187
  0
DICTIONARY
  5
110
330
98
100
AcDbDictionary
280
     1
281
     1
  3
BUMPTILE
360
112
  3
DIFFUSETILE
360
111
  3
FBXASSET
360
18A
  3
OPACITYTILE
360
113
  3
REFLECTIONTILE
360
114
  0
DICTIONARY
  5
104
330
87
100
AcDbDictionary
280
     1
281
     1
  3
ACAD_ROUNDTRIP_2008_TABLESTYLE_CELLSTYLEMAP
360
4A9
  0
XRECORD
  5
189
102
{ACAD_REACTORS
330
188
102
}
330
188
100
AcDbXrecord
280
     1
 70
     1
 90
429727718
  1
508B35C9-AEE7-456F-BE74-D52651303AC6
310
504B03040A0000080000B670623B3DEE336E79000000790000001B0000006175746F6465736B2D64657369676E2D7061636B6167652E786D6C3C3F786D6C2076657273696F6E3D22312E302220656E636F64696E673D227574662D3822203F3E3C666F726D6174733E3C666F726D61743E687474703A2F2F736368656D612E
310
6175746F6465736B2E636F6D2F64657369676E2D7061636B6167652F323030393C2F666F726D61743E3C2F666F726D6174733E504B0304140006080800B670623BD486FD9CA0000000F4000000130000005B436F6E74656E745F54797065735D2E786D6C7D8EC10E82300C865F65E91D8A1E8C310C0EEA1BF002731658846E
310
D98AC1B77784ABF1D8FE5FBFBF75BBCE937A534CCEB38643598122B6FEE978D0B0485F9C41B54DDD7D022595594E1A469170414C76A4D9A4D207E29CF43ECE46F218070CC6BECC4078ACAA135ACF422C856C0E68EA1BF5669944DDD7BCDE7B1F8E415D77AECB980613C2E4AC91FC167A2B244592486606FC29C8FD7F045B9A
310
EF7053A7E60B504B0304140006080800B670623B28ED286BEB0000007C01000008000000636F72652E786D6C8D90416EC3201045AF82665B6183218D6D61A254764FD00B204C5C94182C03558F5F9C3852BBEB6A467FFE9B197D71FA9E6FE8CBACC17AD7012D0820E3B41FAD9B3A48F1826B40272956EFE32F1B20A766D3C1
310
268314D3EAD3B24BDABB685CCCAAF3A3D94515828980F42D371D04FD696655A814B3235C8B45E9AB9A4C419F5D8653B2237A1CB163DE672FD6AC209BF3C08E0D1B30EB19C3FC9D72FCC6EB231EFA33EDE96BDD341517E5064B11EDFCBCAF57A3A2194156843498524CAA0FCA5B7268F9E185D42D21A2DCEC7FA0B48CFF8492
310
759155FBBB0F2C80A4F991FB408A72CB22977B50B96EB9C91F504B0304140006080800B670623B55019EA25F0000007C00000007000000636E782E786D6C4DCB3B0E80201045D1AD90E915ED2CF8AC45050C11660C8261F98AB1B07AC9C97D42D718D865D3E909258CFD00CCE24AC6E326A164D74DC0B4128928FF32603847
310
2BA13128B1252AC747C6BAB984FC68F0B87FE8960A5C09FE86CFB69FBA01504B0304140006080800B670623B7BC41AC871010000D40300000C0000006662782F636F72652E786D6CC553ED6E8320147D15C2DF4501B56B6D90A64BBB27D80B50A5CE54C120983EFEAE1F4DD7A56BBA5FF3879273EEE59E7310BE393735EA95
310
ED2AA333CC428A91D2B9292A5D66D8BB63B0C26823B835C67D2BC348CB46657880B1E0A535BE9DA1DC68A7B403549B42CDA0EC3AE530CA6B5864B8CB3F552343E91D5474A7B095F949962A6421D0502778E72C0840D390E18DC5F170E664C205F7BE2A66B62A605A75AC94C522DDEEE3651AEF837817C741F2CE92E02D592D
310
83FD6ECB76EC7595A651C2C9D02CB8AB9A8BBADC2AE954814544691A3016D0E883256BBA58278B17BA5A53CAC9507ED3E4DBE2C9265F691747B3DCA9ADC382819091F8E1162272A8933DE82182932144F88C09DF060D8140C84E1EEA8B8F1340BDCA9DB1093085F157AA97B557309586747CD0EF0B4EA64E983A6E0EAEEFCE
310
889E9EF17847386AA94B30211D2C0FDE0D3AF9A4610EAD5536E8DD1969631B593F67E381C33F5157F17725E5A636F6BF1491F980C8FC7B90E13E8A2F504B0304140006080800B670623B70102A487D0000009D0000000B0000006662782F636E782E786D6C4DCCD10A83201886E15B91FFDC95A5C30335ACCDFB886521330D
310
A76397BF1A1DECE883878F57749FD5A3B74D2F17830472A901D9F088930B8B849267CC01754AA418F3DF0D5018572BE160506249B16C274D761E8BCFBB7A179E27F65CB39A0F14D396184C9921B81F34C3ACA1B4B99ABB6E6F062A25AA5F69DF23ACBE504B0304140006080800B670623B3610CA3329010000120200003100
310
00006662782F42384135303843342D343331462D343546312D424341352D3532343432364645413344462F636F72652E786D6C8D515B6EC32010BC0AE22B55850D0E446E848992B43E412FE000495162B07854397EA176A4F62F3F2C9A9D991D58BEBB8F37F0AD7D30CE76905418026DA553C65E3A98E219B510EC04F7CEC5
310
3F3408EC30EA0E16180A7EF12E4D0B249D8DDAC68C5AA7F4020E21E80881BCE54B0783FCD2E3500D296646B856D320AFC34557A4CAEDCC133C449F0380794839A138B47B86DB2345744D7A44594FD0E1B867883594369BFE63BF7EEF793D0B054FC9A8456E548E63CE46FB674D8A58F068C6477CE9F510B582A2C1F80D1182
310
70F349E816B32D65AFB8DD62CCEB42FF274A937A52948C8DEB66893BCB021484D7734370E5D2E9F608A3EF93F3119479ABA0E50B14B8C298119A43CCC4FCFCECB8A18B6388CEE7EF5D5D4F994BD86CBBA182D76543B9FCAE2FD7B24DF103504B0304140006080800B670623B1B8617914E0100003303000030000000666278
310
2F42384135303843342D343331462D343546312D424341352D3532343432364645413344462F636E782E786D6CD593C16EC32010447F0571AD6CE3D489D20813A9877E410FBD62D82434182CC055F3F75D1292E692438FBD206B7698593D61BEFD1E2DF982108D773D6D6B460938E5B571FB9ECE6957AD29D90A1EBC4F7736
310
4A9C1CA1A759A682EF839FA72269D8C9D92654AD71C72206887E0E0A22CAF926B15E498B01E0AA19451807D01A34B919F16B070157417138917400F2F6FA41FCF0092A45DEE414C19BDC21783E4BD39D891265658C3D8DEA00A3ACE59CBC8678ACB54CB26EEB6BD7839D7E9348BE70AD9C8321B9BCA7F9A4A26C542347DEE0
310
50F09802D22BA6749A800A394DD62899107273365E3C82CFC6A55557BC06C10774B7ABE7AEC3B0F34CF06446280E154026D0542C187BA9DAB6628BF7B6DBB0E5A65B3EB1F58631DE64BBE083F7B65CC218087E22CABB042E51D1F2268F1FE12B3EA24D40D63E9CFE00120194D60B9D5BC67FE6D39CDF37E20AF817881F504B
310
0304140006080800B670623BBFEF2E3B690500003C100000340000006662782F42384135303843342D343331462D343546312D424341352D3532343432364645413344462F6F626A656374732E786D6CAD575D739B3814FD2B0CFB0C98D84E931D4227B6938EA793B6534F3BFB90198F0099B001899144EAECAFDF231018B0
310
D37A3FFC609090EEE7B94757C1FB7D915B2F54C88CB31BDB7727B64559CC938CA53776A576CE956DBD0F03C1B9EA2DB32D460A7A63EB693B0C52C1ABD24C257447AA5C8D66EF177F5832A68CDA569C13296F6C193FD182B8A4523CA1F2D94D88226EBADBBBBEDB2C1C8A4D05299F46424B222853B014F30C52ACC6287F389C
310
D85E1878FA7B18E87FB36AFAF62AAFF667A83F635211161F291B8999FAB3D5DDC5FCDA99CF6653677679E13B8BFBC5CAF1DF4D27CBCBE5F2FAF6EE1A8AA51290642C117467871F101B91C581D77CEA2C36869F3229E68CD1B8F61F1ED6361B89092D294B90C78C4A68EB793D190E7D1D9BDEE7A91E1B95FDE9F3BCEAEFE809
310
6A6D6F9F7D4B79F4275C90E7A04248AA51D5C4C738DAE06F72885AC4796EBE65D22A88A22223B995679120E2D50EB1542F098381188D4EA111AE3DB043FF20AF6F2B4AE3D7D83D65E5AECA730D4D3BAC91BD05FEA992B565D95F549CD6069B90AB2A63EACA38A45E4B6A87D781574F86817E4C2FCCC72690D62E2729520E37
310
9BAF234797BAF6D62B3BFC781FED37BA1E4F2B2F052FA9501A3E80569BB8F6A9A364D4FA67654E6F803383981F82F21591FF84F23D9882BC896C3FDBCF8C162508933B2E0AE4C69DD43F6BD2BE38DDDBF10BF86CB4FA784D37F3AF16075E67EC9030DECA1FC0A55373F5DFF3378C591FA9BDF485C10B0A8C8BA909E5262639
310
A8E72163488806A595734C81CB77D1DE0ED7604A303B76913CEC0272F412782FF88EFF4636D8AA56DF7B322474C4B767303F625997056C7B032C473C592B36CEBD15F3F9FF5233B7ABCDC74D257624A60F8658567497B14CE1EC3C80B76FD02011038F9EE9EB0F2E12387A9C844D3F09855125116D1D731DF8B43D2CF4E0A0
310
79A020C6BE946BCE0B7EA1E1219331CD73C228AF5A2DDD31A4B1DA918CE91350854D40A71723140BFA92E94E62B0626016CEFA5864A50E5977E8753CEDBEE1CBB7F52780D20E17AF0BA0F5F9B02A3AD07DCC732EB6D1EBB661421BE0C39E21BABF0FE16D22EA6929407C8DE596724C88B749B6DB5512BC7B228ADFD7CB7EA6
310
3A22397E690BA8D5D8D4E40CEC8CDA23C2C0B7D5898640101CEC9C6D331CE328CB93CAFBBAC70A642DF70DF95155945B52F08AA973C23469FD69ADEF84F7BB18F983A8F8C90E37F5D35980B2139A1C523540813E824EF83448CF7C72B598CE97D7CEEDDDDD3B6736BFBC771677EF66CE6A7E7139F7A793E9EDF2B2B3A8B624
310
0CDA13AA5F8388264EC4A0129909F3B7F5A16CEDF08128E97D680ACA4B9BE7B7B58BB638F0B00700EF36AE8B32A705658A68F83EE897FC2B41573190D1CCAF0B92D233A47CFEB019D9809933F67DD1A5467F8CF69AD9A5AE859342D45355448C64F968A371DC2D596ADC6E43D93D1B466F877A64E2893E54F23C4B40388995
310
525E5005DA3983ED45412510D3EFCA13737B3863F74BD30F2A12E5B4B5E489A025CE25500DB855B11ACE5BBFA185D35DD48D8DC3CE7DC69F2944DB42AA6F6CF09BCA622ADD08C7A36E7C6AE18000BAB08E040135C2D21C9D75B3A91B77BB746C403F38018DFE6EC939DD92F16B40BC05294B9CDA035AAD6D330AE27FE4786B
310
8E45145EA34A75BE1C263A676A35A8ACC6297337400BF16C54EF515F3F77CB77EB3583889C754FFA29081AA98E2222ADEF05DA3E63D2EDEA8B8756C05A7FB6CABC4A91CBF325398202CC952E70A008A830324BA200D5E5EF8F5F04C75DB4B0EE3340E071C98B823333B83577596BF3849B69F2085AA0FAFA212F26BEFF5877
310
FDE622B28D88A42E49E43326DA82D31E8CB006401E1DA726059ECEC168F97A6599036306A135688F9AD2E61A6EA178F4CD51974A9F2CCB9F36FE5EBD14601068D9C3BF01504B0304140006080000B670623B000000000000000000000000350000006662782F42384135303843342D343331462D343546312D424341352D35
310
32343432364645413344462F76657274696365732E62696E504B0304140006080800B670623BF270F1330600000004000000360000006662782F42384135303843342D343331462D343546312D424341352D3532343432364645413344462F747269616E676C65732E62696E636660600000504B0304140006080000B67062
310
3B000000000000000000000000370000006662782F42384135303843342D343331462D343546312D424341352D3532343432364645413344462F617474726962757465732E62696E504B0304140006080800B670623B08DA0BD19000000041010000360000006662782F42384135303843342D343331462D343546312D4243
310
41352D3532343432364645413344462F6469726563746F72792E786D6C858F410AC3201045AF22B36F53E9A60B35CBEEBAE80D244E44489C6234F4F835464A48035D0DF398FF9F8AF63D0E6CC63039F212F8F9020C7D47C6792B21C5FE7403D62A1188E2E60C98D7234A5830286103A55745067B9D86B8A3CF9C7F90C11DE6
310
07FB144396D7B6A82D282E9A152AD114D5EF2CB866EEE831B8EEA07A7BB5A8D7D61A2BAAEB7FD5F70921FF497D00504B0304140006080800B670623B3B4606F3FE000000A00100003B0000006662782F42384135303843342D343331462D343546312D424341352D3532343432364645413344462F7265736F75726365732F
310
636F72652E786D6C8D504B6E833010BD0A9A6D65B08134808CA354A427E8052C332156828DFCA97AFC9A40A576D7CDCCE87D344F8F9FBEE647F689CE6B6B7A6039850C8DB2A336530F315C4903D94970676DF82583CCC8197B5861107C72362E3BA4AC096842428D1D7107A5F71820538F74F4E0D50D6799CB1892C2DFF345
310
AABB9C306779A2934E701F5C0A906D4FD609C2A1B7D129F4BCD858C163D4E3AED163FAA9AF1A1D88F67CA98E6D35906AA82A52BFB39ABCD5CD915C86331BD86BD3B665CD8BD52C78D0F34F46E550061C419494B6843142CB0F5677F4D0D58717DA7494F26295FF31C565FCA7296A13AA728FBBD93C0896823C09C18BB5AFB4
310
9E65A6BD762BBE01504B010214000A0000080000B670623B3DEE336E79000000790000001B00000000000000000000000000000000006175746F6465736B2D64657369676E2D7061636B6167652E786D6C504B01021400140006080800B670623BD486FD9CA0000000F40000001300000000000000000000000000B2000000
310
5B436F6E74656E745F54797065735D2E786D6C504B01021400140006080800B670623B28ED286BEB0000007C010000080000000000000000000000000083010000636F72652E786D6C504B01021400140006080800B670623B55019EA25F0000007C000000070000000000000000000000000094020000636E782E786D6C50
310
4B01021400140006080800B670623B7BC41AC871010000D40300000C00000000000000000000000000180300006662782F636F72652E786D6C504B01021400140006080800B670623B70102A487D0000009D0000000B00000000000000000000000000B30400006662782F636E782E786D6C504B01021400140006080800B6
310
70623B3610CA3329010000120200003100000000000000000000000000590500006662782F42384135303843342D343331462D343546312D424341352D3532343432364645413344462F636F72652E786D6C504B01021400140006080800B670623B1B8617914E010000330300003000000000000000000000000000D10600
310
006662782F42384135303843342D343331462D343546312D424341352D3532343432364645413344462F636E782E786D6C504B01021400140006080800B670623BBFEF2E3B690500003C10000034000000000000000000000000006D0800006662782F42384135303843342D343331462D343546312D424341352D35323434
310
32364645413344462F6F626A656374732E786D6C504B01021400140006080000B670623B0000000000000000000000003500000000000000000000000000280E00006662782F42384135303843342D343331462D343546312D424341352D3532343432364645413344462F76657274696365732E62696E504B010214001400
310
06080800B670623BF270F133060000000400000036000000000000000000000000007B0E00006662782F42384135303843342D343331462D343546312D424341352D3532343432364645413344462F747269616E676C65732E62696E504B01021400140006080000B670623B00000000000000000000000037000000000000
310
00000000000000D50E00006662782F42384135303843342D343331462D343546312D424341352D3532343432364645413344462F617474726962757465732E62696E504B01021400140006080800B670623B08DA0BD1900000004101000036000000000000000000000000002A0F00006662782F42384135303843342D3433
310
31462D343546312D424341352D3532343432364645413344462F6469726563746F72792E786D6C504B01021400140006080800B670623B3B4606F3FE000000A00100003B000000000000000000000000000E1000006662782F42384135303843342D343331462D343546312D424341352D3532343432364645413344462F72
310
65736F75726365732F636F72652E786D6C504B0506000000000E000E0080040000651100000000
  0
XRECORD
  5
187
102
{ACAD_REACTORS
330
186
102
}
330
186
100
AcDbXrecord
280
     1
 70
     1
 90
429727718
  1
887D55A9-D0DD-414E-B741-A7DCD4DA2B4C
310
504B03040A0000080000B670623B3DEE336E79000000790000001B0000006175746F6465736B2D64657369676E2D7061636B6167652E786D6C3C3F786D6C2076657273696F6E3D22312E302220656E636F64696E673D227574662D3822203F3E3C666F726D6174733E3C666F726D61743E687474703A2F2F736368656D612E
310
6175746F6465736B2E636F6D2F64657369676E2D7061636B6167652F323030393C2F666F726D61743E3C2F666F726D6174733E504B0304140006080800B670623BD486FD9CA0000000F4000000130000005B436F6E74656E745F54797065735D2E786D6C7D8EC10E82300C865F65E91D8A1E8C310C0EEA1BF002731658846E
310
D98AC1B77784ABF1D8FE5FBFBF75BBCE937A534CCEB38643598122B6FEE978D0B0485F9C41B54DDD7D022595594E1A469170414C76A4D9A4D207E29CF43ECE46F218070CC6BECC4078ACAA135ACF422C856C0E68EA1BF5669944DDD7BCDE7B1F8E415D77AECB980613C2E4AC91FC167A2B244592486606FC29C8FD7F045B9A
310
EF7053A7E60B504B0304140006080800B670623BBC1638F5EC0000007C01000008000000636F72652E786D6C8D90416EC3201045AF82665B61836BE2D8C24471DB9CA01740401C94182C03558F5F9C3852BBEB6A467FFE9B197D7EF89E6EE8CB2CC17AD7032D0820E394D7D68D3DA478C67B4007C117EFE32F1B202727D3C3
310
2A83E0E3E2D3BC49CABB685CCCAAF3DA6CA20CC14440EA969B1E82BA98491632C5EC08D76296EA2A4753D06797E194AC468F2356E77DF66CCD02825543D50CACC62D39ED70FDC68EB8FD68F6F8787A6784342D1DDA1D2F5758F068A7E77DB518198D065111D2624A31A93E69DD11D6D5EC85EC3B4278B9DAFF4069D6FF8492
310
75F1B5DADE7D600104CD8FDC0782976B16B9DC83CA75CD4DFC00504B0304140006080800B670623B55019EA25F0000007C00000007000000636E782E786D6C4DCB3B0E80201045D1AD90E915ED2CF8AC45050C11660C8261F98AB1B07AC9C97D42D718D865D3E909258CFD00CCE24AC6E326A164D74DC0B4128928FF326038
310
472BA13128B1252AC747C6BAB984FC68F0B87FE8960A5C09FE86CFB69FBA01504B0304140006080800B670623B3586FFB671010000D40300000C0000006662782F636F72652E786D6CC553ED6E8320147D15C2DF4541A76D6D90A6DDD627D80B50A4CE54C120983EFEAE1F4DD7A55BBA5FF3879273EEE59E7310B6393735EA
310
95ED2AA3731C851423A5A5292A5DE6D8BB63B0C268C39935C67D29C3488B46E578803167A535BE9D2169B453DA01AA4DA16650749D7218C91A1639EEE4876A4428BC838AEE14B6429E44A9C228041AEA38EB9C0501681A32BC313F1ECE8C4C3867DE57C5CC56054CAB8E95B298A7F12E5EEED224C8E87E11242FE936C8DE96
310
AB60BB7F4D295D66D12E5B30323473E6AAE6A24E5A259C2A308F29CD82280A68FC1E256B9AAE93F489AED694323294DF34F9B678B0C957DA3DC7B3DCA9ADC33C022123F1CD2D44E450277AD04338234388F01913BE0D1A0281909D38D4171F27807A259DB1093085F157AA17B557309586747CD0CF0B46A64E983A6E0EAEEF
310
CE881F9EF1FB8E70D44297604238581EBC1B74B249C31C5AAB6CD0BB33D2C636A27ECCC62F0EFF445DC5DF95244D6DEC7F2922F30191F9F720C37DE49F504B0304140006080800B670623B4220A0FF7D0000009D0000000B0000006662782F636E782E786D6C4DCCD10A83201886E15B91FFDCE542CB0335D0EC3E6259C84A
310
C3E9D8E5AF46073BFAE0E1E315DD675BD1DBA5978F41C2FD4600B9F088930F8B849267CC01754AA418F3DF0D50183727E164506249B1EC174D6E1ECB9A0F5D7D785E68DB8151CD286E5A5363CA6B8A39E90D36D40E96B086F55A43A544F52B1D7B86D517504B0304140006080800B670623B2FA3FEDE290100001202000031
310
0000006662782F45374635344235342D363743322D343832342D383044432D4334454645303536354442422F636F72652E786D6C8D515B6EC32010BC0AE22B55850D2E386E848994D7097A0117488A1283C5A3CAF10BB523B57FF961D1ECCCECC0F2ED7DBC816FED8371B687A4C210682B9D32F6D2C314CFA883602BB8772E
310
FEA141608751F7B0C050F08B77695A20E96CD43666D43AA5177008414708E42D5F7A18E4971E876A483133C2B59A06791D2EBA22556E679EE021FA1C00CC43CA09C5717D6274C7286AD7FB06D1AEA1A8C3873DDAD3E3E98859CB0EBB1DAF67A1E02919B5C88DCA71CCD968FFAC49110B1ECDF8882FBD1EA256503418BF2342
310
106E3E08DD60B6A1EC15771B8C795DE8FF4469524F8A92B1F1AD59E2CEB20005E1F5DC105CB9F4797B84D1F7C9F908CABC55D0F2050A5C61CC1AD2F27A26E6E767C7962E8E213A9FBF7775FDCC5CC266DB960A5E970DE5F2BBBE5CCB36C50F504B0304140006080800B670623B1B8617914E01000033030000300000006662
310
782F45374635344235342D363743322D343832342D383044432D4334454645303536354442422F636E782E786D6CD593C16EC32010447F0571AD6CE3D489D20813A9877E410FBD62D82434182CC055F3F75D1292E692438FBD206B7698593D61BEFD1E2DF982108D773D6D6B460938E5B571FB9ECE6957AD29D90A1EBC4F77
310
364A9C1CA1A759A682EF839FA72269D8C9D92654AD71C72206887E0E0A22CAF926B15E498B01E0AA19451807D01A34B919F16B070157417138917400F2F6FA41FCF0092A45DEE414C19BDC21783E4BD39D891265658C3D8DEA00A3ACE59CBC8678ACB54CB26EEB6BD7839D7E9348BE70AD9C8321B9BCA7F9A4A26C542347DE
310
E050F09802D22BA6749A800A394DD62899107273365E3C82CFC6A55557BC06C10774B7ABE7AEC3B0F34CF06446280E154026D0542C187BA9DAB6628BF7B6DBB0E5A65B3EB1F58631DE64BBE083F7B65CC218087E22CABB042E51D1F2268F1FE12B3EA24D40D63E9CFE00120194D60B9D5BC67FE6D39CDF37E20AF817881F50
310
4B0304140006080800B670623B29652116630500003C100000340000006662782F45374635344235342D363743322D343832342D383044432D4334454645303536354442422F6F626A656374732E786D6CAD575D739B3814FD2B0CFB0C989834C90EA1639B24E3E9A6EDD4D3CE3E64C623834CD8006224913AFDF57B040203
310
B65BEF871F0C12D2FD3CF7E8CA7FBFCB33E3957291B2E2D674ED8969D02262715A24B76625B7D6B569BC0F7CCE98EC2D338D82E4F4D654D366E0279C55A59E8AE99654991CCDDECFFF3444440B6A1A514684B83545F44C7362934AB2988A173B2692D8C97667BB76B3702836E1A47C1E092D09A78584A5982F20C5688C7287
310
C389E904BEA3BE07BEFAD7ABA6A75739B53F43FD69212429A20365233153D70BEF2E2E6FAC4BCF9B5ADEBB0BD79ADFCF43CBBD9A4E16EF168B9BD9DD0D140BC921495BC2E9D60C1E101B9E46BED37CEA2CD6861F3329624541A3DA7F7858DBAC25C6B4A4458C3CA654405BCFEBC970E8AAD8F43E4FD558ABEC4F9FE7557F47
310
4F506B7BFBEC5BCA367FC105710E2AB8A00A554D7CB4A30DFE26FBA86D18CBF4B75418399194A72433B274C3097F33032C554B027F2046A1932B842B0FCCC0DDCBEBDB8AD2F835768F59B9ADB24C41D30C6A64AF817F2A456D59FA83F2E3DA60137255A585BCD60EC9B7929AC18DEFD49381AF1ED30BFDB109A4B1CD488294
310
C3CDE6EBC8D185AABD6568061FEE37BB95AAC7E3CA4BCE4ACAA5820FA0D526AE7DAA2869B5EE5999531BE0CC20E6FBA07C41E43FA27CF7A6206F3CDD793B4F6B919C1462CB788EDCD893FA674CDA17AB7B3B7C019F8D561FAEE966FED562DFE98C1D12C6A9FC015C2A35D7FF3D7FC398F591DA4B5FE0BFA2C0189FEA50AE22
310
92817A1ED3020951A03432862970F976B33383259812CC8E5D240BBA801CBCF8CE2BBEE3BF910DB6AAD5F79E05123AE2DB33981FB1ACCB02B69D00CB014FD68AB573A7627EF9BFD4CC2C5C7D58557C4B22FAA88925A4DBB44825CECE3D78FB060D1231F0E885BE7D673C86A3874958F593906B5502D1563157814FDAC3420D
310
F69A070A22EC4B98E23CFF171A1E5311D12C23056555ABA53B8614563B92D17D02AAB009E8F46284624E5F53D5490C560CCCC2591FF1B45421EB0EBD8EA7ED13BE7C5D7E0428CD60FEF60779EB13E6664FF711CB185F6FDED60D139A001FF60CD1FD6D086F1D51474901E26B2CB794A343BC8ED3EDB612E0DD2351FCB65CF4
310
33D511C9E14B5B40ADC6A6263DB0336A8F700DDF56271A024E70B0B3629DE21847591E55DED73D56206AB927E46FAABC5C939C55853C274C93D69FD6FA4E78BF8B11DF898C9ECD60553FAD39283BA6F18984AA23E8884F83F45C5F5F859797B31B2B9C84A1E5B9DE9D35BFF25C6B76152E422F9C5DCC3D847F5801ED09D5AF
310
41441327A25FF15487F9EB725FB666F048A4701E9A827292E6F97569A32DF61DEC01C0BB8DCBBCCC684E0B49147C1FD54BF685A0AB18C868E6973949E819523E3DAC463660E68C7D9F55A9D1EFA3BD7A76A16AE1A810F95CE59B82A4D968A376DC2E8B44BBDD86B27B368CDE0ED548C7137DA860591A83706223A12CA712B4
310
7306DBF39C0A20A6DF95C7FAF670C6EED7A61F946493D1D6926782963813403548A78AE470DEF80D2D9CEAA26E4D1C76F60BFE74219A06527D6B82DF641A51616F703CAAC6A7160E08A00BEB4810A0274592A1B36E3675E36E978A0DE80727A0D6DF2D39A75BD27E0D8837276589537B40ABB56D5A41F48F1C6FCD3188C4EB
310
A6929D2FFB89CE995A4D00AE813BDD032DC48B56BD437DFDDC2DD7AED70C2272D63DE9A72068A45A92F0A4BE17A8A06B9366E16707AD80B1FC649459952097E74BB23805982B55E0401150A165964402AA8BDF9F3E7386BB686EDCA780C0D382E5392BF460A6EFB2C6EA1937D3F809B440D5F5435C4C5CF7A9EEFAF54564BD
310
2182DA24162F98680B4E7930C21A0079709CEAEB99A372305ABE0C0D7D6078105A83F6A0296DAEE1068A47DD1C55A9F4C9B2FC69E3EFD44B81028E963DF81B504B0304140006080000B670623B000000000000000000000000350000006662782F45374635344235342D363743322D343832342D383044432D433445464530
310
3536354442422F76657274696365732E62696E504B0304140006080800B670623BF270F1330600000004000000360000006662782F45374635344235342D363743322D343832342D383044432D4334454645303536354442422F747269616E676C65732E62696E636660600000504B0304140006080000B670623B00000000
310
0000000000000000370000006662782F45374635344235342D363743322D343832342D383044432D4334454645303536354442422F617474726962757465732E62696E504B0304140006080800B670623B08DA0BD19000000041010000360000006662782F45374635344235342D363743322D343832342D383044432D4334
310
454645303536354442422F6469726563746F72792E786D6C858F410AC3201045AF22B36F53E9A60B35CBEEBAE80D244E44489C6234F4F835464A48035D0DF398FF9F8AF63D0E6CC63039F212F8F9020C7D47C6792B21C5FE7403D62A1188E2E60C98D7234A5830286103A55745067B9D86B8A3CF9C7F90C11DE607FB144396
310
D7B6A82D282E9A152AD114D5EF2CB866EEE831B8EEA07A7BB5A8D7D61A2BAAEB7FD5F70921FF497D00504B0304140006080800B670623B6378F24DFF000000A00100003B0000006662782F45374635344235342D363743322D343832342D383044432D4334454645303536354442422F7265736F75726365732F636F72652E
310
786D6C8D504B6E833010BD0A9A6D65B0094E42641C85B639412F6099496225D8C89FAAC7AF09546A77DDCC8CDE47F3F4C4F16B7C149FE88371B603565228D06A37187BED20C50BD9437194C23B177FC9A0B06AC40E6618A4B87A97A615D2CE46B431A3D60DB8822A048C50E8473E3A08FA86A32A558A5911EEE5A4F45D5DB1
310
6465A6B34E8A107D0E502C4FE609D26370C96B0CA25A58295232C3AA3143FE692E063D485EF7F5AEE71BD2D2F39634AFFC44DAF7DD9E9CCE6F9CD25DCBFA762BAAD92C4534E34F46ED51451C40D694B6843142EB0FD61C283F34FC85EE0F948A6A96FF31A569F8A729191B37F51A77B105902C0779125254735F793DCBCC7B
310
EE567E03504B010214000A0000080000B670623B3DEE336E79000000790000001B00000000000000000000000000000000006175746F6465736B2D64657369676E2D7061636B6167652E786D6C504B01021400140006080800B670623BD486FD9CA0000000F40000001300000000000000000000000000B20000005B436F6E
310
74656E745F54797065735D2E786D6C504B01021400140006080800B670623BBC1638F5EC0000007C010000080000000000000000000000000083010000636F72652E786D6C504B01021400140006080800B670623B55019EA25F0000007C000000070000000000000000000000000095020000636E782E786D6C504B010214
310
00140006080800B670623B3586FFB671010000D40300000C00000000000000000000000000190300006662782F636F72652E786D6C504B01021400140006080800B670623B4220A0FF7D0000009D0000000B00000000000000000000000000B40400006662782F636E782E786D6C504B01021400140006080800B670623B2F
310
A3FEDE290100001202000031000000000000000000000000005A0500006662782F45374635344235342D363743322D343832342D383044432D4334454645303536354442422F636F72652E786D6C504B01021400140006080800B670623B1B8617914E010000330300003000000000000000000000000000D2060000666278
310
2F45374635344235342D363743322D343832342D383044432D4334454645303536354442422F636E782E786D6C504B01021400140006080800B670623B29652116630500003C10000034000000000000000000000000006E0800006662782F45374635344235342D363743322D343832342D383044432D4334454645303536
310
354442422F6F626A656374732E786D6C504B01021400140006080000B670623B0000000000000000000000003500000000000000000000000000230E00006662782F45374635344235342D363743322D343832342D383044432D4334454645303536354442422F76657274696365732E62696E504B01021400140006080800
310
B670623BF270F13306000000040000003600000000000000000000000000760E00006662782F45374635344235342D363743322D343832342D383044432D4334454645303536354442422F747269616E676C65732E62696E504B01021400140006080000B670623B0000000000000000000000003700000000000000000000
310
000000D00E00006662782F45374635344235342D363743322D343832342D383044432D4334454645303536354442422F617474726962757465732E62696E504B01021400140006080800B670623B08DA0BD190000000410100003600000000000000000000000000250F00006662782F45374635344235342D363743322D34
310
3832342D383044432D4334454645303536354442422F6469726563746F72792E786D6C504B01021400140006080800B670623B6378F24DFF000000A00100003B00000000000000000000000000091000006662782F45374635344235342D363743322D343832342D383044432D4334454645303536354442422F7265736F75
310
726365732F636F72652E786D6C504B0506000000000E000E0080040000611100000000
  0
XRECORD
  5
112
102
{ACAD_REACTORS
330
110
102
}
330
110
100
AcDbXrecord
280
     1
270
     1
271
     1
  0
XRECORD
  5
111
102
{ACAD_REACTORS
330
110
102
}
330
110
100
AcDbXrecord
280
     1
270
     1
271
     1
  0
XRECORD
  5
18A
102
{ACAD_REACTORS
330
110
102
}
330
110
100
AcDbXrecord
280
     1
 70
     0
 90
1778669749
  1
9BF507EE-FAF7-4A99-A33D-4EE51894BC40
310
504B03040A0000080000B670623B3DEE336E79000000790000001B0000006175746F6465736B2D64657369676E2D7061636B6167652E786D6C3C3F786D6C2076657273696F6E3D22312E302220656E636F64696E673D227574662D3822203F3E3C666F726D6174733E3C666F726D61743E687474703A2F2F736368656D612E
310
6175746F6465736B2E636F6D2F64657369676E2D7061636B6167652F323030393C2F666F726D61743E3C2F666F726D6174733E504B0304140006080800B670623BD486FD9CA0000000F4000000130000005B436F6E74656E745F54797065735D2E786D6C7D8EC10E82300C865F65E91D8A1E8C310C0EEA1BF002731658846E
310
D98AC1B77784ABF1D8FE5FBFBF75BBCE937A534CCEB38643598122B6FEE978D0B0485F9C41B54DDD7D022595594E1A469170414C76A4D9A4D207E29CF43ECE46F218070CC6BECC4078ACAA135ACF422C856C0E68EA1BF5669944DDD7BCDE7B1F8E415D77AECB980613C2E4AC91FC167A2B244592486606FC29C8FD7F045B9A
310
EF7053A7E60B504B0304140006080800B670623BCA089DFFEC0000007C01000008000000636F72652E786D6C8D90416E83301045AF62CDB632D8402020E32882F604BD80653BC44AB011B6AB1EBF262152BBEB6A467FFE9B197D76FA9EEFE84BAFDE38DB03CD08206DA553C64E3DC470C1474027CE56E7C22F1B202B66DDC3
310
260367D3EAE2B24BD2D9A06D48AA754AEFA2F05E0740F29E9A1EBCBCEA59642286E4F0B76C11F226269DD15797E0188D42CF2346A57DE662F40ABCAEC77628C6120F654571D50C04B7F5B9C1E3997CD4F550BE3745C3F20DE62C98F9755FAE5A04AD801784B498524C8A4F5A75E4D055873772EC0861F966FF03C545FD138A
310
C686B2D8DF7D621E384D8F3C069CE55B16A93C824A75CB8DFF00504B0304140006080800B670623B55019EA25F0000007C00000007000000636E782E786D6C4DCB3B0E80201045D1AD90E915ED2CF8AC45050C11660C8261F98AB1B07AC9C97D42D718D865D3E909258CFD00CCE24AC6E326A164D74DC0B4128928FF326038
310
472BA13128B1252AC747C6BAB984FC68F0B87FE8960A5C09FE86CFB69FBA01504B0304140006080800B670623B68FC0B7272010000D40300000C0000006662782F636F72652E786D6CC5535B6E833010BC8AE5DF0A6C1E8124328E22D29EA01770C0A128602363A31CBFCB234A53A555FA553EC09AD9F5CE8C31DB5DDA060D
310
D2F4B556190E7C8A9154852E6B5565D8D993B7C668C799D1DA7E29C3488956667884316795D1AE5BA0422B2B950554E9522EA0E87B69312A1A5864B82F3E642B7CE12C54F467BF13C55954D20F7CA0A18EB3DE1A1080E621E31BF3D3F1C2C88C73E65C5D2E6C5DC2B4FA544B8379921C36797888BC3C8A032F4E73EA6D927D
310
EA1DF6F42D49F2E8350D5346C666CE6CDD5ED515460A2B4BCC434A375E1078347C0FE22D5D6DE3D50B5D6F2965642CBF6B725DF96493AB958DC245EEDCD6631E809089F8E61622B2A81703E8219C913144F84C09DF070D8140C8561C9BAB8F3340832CAC363130A576376A108D933095FA747AD0CF0B46E64E983A6D0EAE1F
310
CE089F9EF1FB8E70D44255604258581E9D1D75B259C3125A278D37D80B52DAB4A279CEC62F0EFF44DDC43F9454E8469BFF5244960322CBEF41C6FBC83F01504B0304140006080800B670623B0F71DDB67E0000009D0000000B0000006662782F636E782E786D6C4DCCD10A83201886E15B91FFDCA54DB73F502386BB8F5816
310
32D3703976F9ABD1C18E3E78F87855FB990379BBFCF2296AE02706C4C5471A7C9C349475A408A4352AA7B4FEDD80C47E761A7606A3A69CCA72D0E0C6BE8475D3E0E3F3409428EA6B27A84079A782899AA2EC1A7AE3ECCC2FD858CB2D544655BFD2B67BD87C01504B0304140006080800B670623BE134B4FB28010000120200
310
00310000006662782F38353834323741342D343835462D343034322D383541392D4331303331363839454531452F636F72652E786D6C8D515B6EC32010BC0AE22B55850D0EA424C24451959EA0172086A42831583CAA1CBF503B52FB971F16CDCECC0EACD8DFC71BF836215AEF7A481A0C817183D7D65D7A98D3197108F652
310
04EFD31F1A044E8DA6871586525C82CFD3020DDE25E352419DD76601558C264130DCCAA58771F832A36A544E8511AFCDA486ABBA988634A55D7852C4144A00300FA927949C71DABD1D28A29C7D208A6987383B6CD13BC16BB2E1DBE3911C453B0BA5C8D9EA456E758963CFD684674DAA588A64C747FC2118958C86B2C3788B
310
0841B8FB247487D98EB257CC77188BB6D2FF89F2A49F1465EBD2BA5BE2CEB2082511EDDC9042FB7CBA3DC298FBE4430275DE2A9AE1054ADC60CC08E3A29D89E5F9C5714317C7987C28DFBBBA9E0A97B0D97643A568EB864AF95D5FA9759BF207504B0304140006080800B670623B1B8617914E010000330300003000000066
310
62782F38353834323741342D343835462D343034322D383541392D4331303331363839454531452F636E782E786D6CD593C16EC32010447F0571AD6CE3D489D20813A9877E410FBD62D82434182CC055F3F75D1292E692438FBD206B7698593D61BEFD1E2DF982108D773D6D6B460938E5B571FB9ECE6957AD29D90A1EBC4F
310
77364A9C1CA1A759A682EF839FA72269D8C9D92654AD71C72206887E0E0A22CAF926B15E498B01E0AA19451807D01A34B919F16B070157417138917400F2F6FA41FCF0092A45DEE414C19BDC21783E4BD39D891265658C3D8DEA00A3ACE59CBC8678ACB54CB26EEB6BD7839D7E9348BE70AD9C8321B9BCA7F9A4A26C542347
310
DEE050F09802D22BA6749A800A394DD62899107273365E3C82CFC6A55557BC06C10774B7ABE7AEC3B0F34CF06446280E154026D0542C187BA9DAB6628BF7B6DBB0E5A65B3EB1F58631DE64BBE083F7B65CC218087E22CABB042E51D1F2268F1FE12B3EA24D40D63E9CFE00120194D60B9D5BC67FE6D39CDF37E20AF817881F
310
504B0304140006080800B670623B5933D422630500003B100000340000006662782F38353834323741342D343835462D343034322D383541392D4331303331363839454531452F6F626A656374732E786D6CAD575B6FA33814FE2B887D0642934E9B156594264D158D3A534DD4D13E548A0C38942D60649B4EBABF7E3F8321
310
40924EF6928780CDF1B97EE762EFF32E4B8D37CA45C2F21BD3B547A641F39045491EDF98A5DC5AD7A6F1D9F73863B243661A39C9E88DA9B64DDF8B392B0BBD15D12D295339D85DDEFE618890E6D434C2940871638AF08566C426A5641115AF764424B1E3EDCE76ED9AB0CF36E6A47819302D08A7B984A6D8CFC1C5A89572FB
310
CB91E9F89EA3BEFB9EFAD754E3D3544E654F5F7E920B49F2F040D880CDD89D2CEE2E2EA7D6E56432B6269F2E5CEB7679BBB0DCABF168FE693E9FCEEEA6102C240727AD09A75BD3BF876F78127A4EFDA9D5582B7E4CA590E5390D2BFB6161A5B3E618D182E611E2985001691DAB47FDA5AB7CD3F93C566B2DB2BB7D9E55DD13
310
1D468DEECDB3AB290BFE8409E21C54704115AA6AFF68436BFC8DF65E0B184BF5B74418199194272435D224E084BF9B3E481589EFF5D828747285706581E9BB7B7E5D5D911ABFC6EE312DB7659A2A689A7E85EC0DF04FA5A8344BFEA2FCB834E8845895492EAFB541F2BDA0A63FF59C6AD3F7D4637CA13FD68E34B629891172
310
98597F1D183A57B9B75A98FE9765B05BAB7C3C2EBCE0ACA05C2AF8005A4DE09AA7F29216EB9E15397500C6F47CBE77CA7778FE2BD277AF0AE2C693DD6437D1522427B9D8329E2136F6A8FA19A3E6C56ADF0E5F50CF06D48734EDCEBF22F69C56D97EC138153F804B85E6FABFC7AFEFB32E523BE1F3BD372418E363EDCA7548
310
52949E8724474014288D94610BB57C1BEC4C7F854A89CA8E5324F55B871CBC78CE1BBEE3BFE68D6A5589EF3C730474506FCFA8FCF0659516D0ED04580EEA6425581B77CAE797FF4BCECC16EB2FEB926F49481F746159D06D922712BD730FDEAE42BD40F42C7AA5EF3F198F60E86110D6DD20645A9480B795CF95E3E3A659A8
310
C55E724F408873315335CFFB8584874484344D494E59D94869DB90C26A5B64F49C802CAC1D3ABE18A098D3B7444D123D8A9E5AE8F5214F0AE5B2B6E9B575DA3E61CBD3EA2B4009FA940524DD1305FB6A1FB294F14DF0BEA90BA109ECE1481FDC3FFAE8D60E75141700BE82725371B4873751B2DD960265F788137FACE6DD40
310
B575E4F0A5C99F46629D92131467A41EE11ABD8D4CCC039CA0AFB37C93A08B232B8F0AEFCA1E0A1015DF13FC83322B362463652ECF71D3A8B1A7D1BE65DE1D62C44F22C317D35F574FEB16153BA2D13E543D10A80E74C4A65E78A6B7CBCBD1D5DD9DB59C2DAFACC96C3AB566E3F1C29ADCDD5DBAD7D3C9ED7C822ED74F80A6
310
41755310DE4443F44A9E68373FADF6596BFA0F440AE7BECE2727AE9F4F2B1B53B1E7E00CF0DD1E5C65454A339A4BA2D0FBA05ED2EF0443458F47BDBFCA484CCFE0F2ED7E3DD0013B679C7B5499467F0ECEEADDB9CA85A34CE44B99053949D2C1416DB85DE4B136BB7165FBAC0B7AB3542BED4F8CA182A549847A1319316519
310
95A83A67147B9E5101C47487F2485F1ECE38FD568F839204296D3479219888530154036E6528FBFBC66F98E0D4107563A2D7D9AFF8D389681A08F58D89F22693900A3B407754734FC51C10C010D6D640809EE4718AC1BA3ED4AEDB53CA37283F68805A7E4B72CEB0A4EDEAD5DD8C14059A76AFAA56BA6901E13F32BC51C720
310
12AF41295B5BF61BAD3195181FB506E6B40F4C10AF5AF40EF9F5B159AE5DD1F43C72D635E94310D45C2D49785C5D0B94D3B54AB3C5A38349C0587D338AB48C11CBF339599C02CCA54A70A008A8D03C0B2201D5F9EFCF8F9CE12A9A19CB0410789EB32C63B95ECCF455D658BFE0621A3DA32C5075FB101723D77DAE867E7D0F
310
D90444509B44E2151B4DC2290B065803200FBAA9BE9D392A0603F2D5C2D00D6302A615680F66D2FA166E2079D4C551A54AB758161FCEFD4E450A14704CECFEDF504B0304140006080000B670623B000000000000000000000000350000006662782F38353834323741342D343835462D343034322D383541392D4331303331
310
363839454531452F76657274696365732E62696E504B0304140006080800B670623BF270F1330600000004000000360000006662782F38353834323741342D343835462D343034322D383541392D4331303331363839454531452F747269616E676C65732E62696E636660600000504B0304140006080000B670623B000000
310
000000000000000000370000006662782F38353834323741342D343835462D343034322D383541392D4331303331363839454531452F617474726962757465732E62696E504B0304140006080800B670623B08DA0BD19000000041010000360000006662782F38353834323741342D343835462D343034322D383541392D43
310
31303331363839454531452F6469726563746F72792E786D6C858F410AC3201045AF22B36F53E9A60B35CBEEBAE80D244E44489C6234F4F835464A48035D0DF398FF9F8AF63D0E6CC63039F212F8F9020C7D47C6792B21C5FE7403D62A1188E2E60C98D7234A5830286103A55745067B9D86B8A3CF9C7F90C11DE607FB1443
310
96D7B6A82D282E9A152AD114D5EF2CB866EEE831B8EEA07A7BB5A8D7D61A2BAAEB7FD5F70921FF497D00504B0304140006080800B670623BD9A3B367FE000000A00100003B0000006662782F38353834323741342D343835462D343034322D383541392D4331303331363839454531452F7265736F75726365732F636F7265
310
2E786D6C8D504B6E833010BD0A9A6D65B01D0201194711694FD00B586642AD043BF2A7EAF16B122AB5BB6E6646EFA3797AE2F8B5DC8A4FF4C1383B002B291468B59B8C9D0748F1420E501CA5F0CEC55F3228AC5A708015062966EFD27D83B4B3116DCCA875136EA00A012314FA968F0182FEC045952AC5AC08D7F2AEF455CD
310
58B232D3592745883E07289E4FD609D26370C96B0CA27AB252A464A64D63A6FCD35C0C7A904D73EE467EE664DCD58CD4ED4849D79C5A723ED1B7A61977AF2D6F45B59AA58866F9C9A83DAA8813484E6947182394BFB3BAA7FBBEDEBFD0434FA9A856F91F53BA4FFF342563E38E6F719FB60092E5200F428A6AED2BAF479979
310
AFDDCA6F504B010214000A0000080000B670623B3DEE336E79000000790000001B00000000000000000000000000000000006175746F6465736B2D64657369676E2D7061636B6167652E786D6C504B01021400140006080800B670623BD486FD9CA0000000F40000001300000000000000000000000000B20000005B436F6E
310
74656E745F54797065735D2E786D6C504B01021400140006080800B670623BCA089DFFEC0000007C010000080000000000000000000000000083010000636F72652E786D6C504B01021400140006080800B670623B55019EA25F0000007C000000070000000000000000000000000095020000636E782E786D6C504B010214
310
00140006080800B670623B68FC0B7272010000D40300000C00000000000000000000000000190300006662782F636F72652E786D6C504B01021400140006080800B670623B0F71DDB67E0000009D0000000B00000000000000000000000000B50400006662782F636E782E786D6C504B01021400140006080800B670623BE1
310
34B4FB280100001202000031000000000000000000000000005C0500006662782F38353834323741342D343835462D343034322D383541392D4331303331363839454531452F636F72652E786D6C504B01021400140006080800B670623B1B8617914E010000330300003000000000000000000000000000D3060000666278
310
2F38353834323741342D343835462D343034322D383541392D4331303331363839454531452F636E782E786D6C504B01021400140006080800B670623B5933D422630500003B10000034000000000000000000000000006F0800006662782F38353834323741342D343835462D343034322D383541392D4331303331363839
310
454531452F6F626A656374732E786D6C504B01021400140006080000B670623B0000000000000000000000003500000000000000000000000000240E00006662782F38353834323741342D343835462D343034322D383541392D4331303331363839454531452F76657274696365732E62696E504B01021400140006080800
310
B670623BF270F13306000000040000003600000000000000000000000000770E00006662782F38353834323741342D343835462D343034322D383541392D4331303331363839454531452F747269616E676C65732E62696E504B01021400140006080000B670623B0000000000000000000000003700000000000000000000
310
000000D10E00006662782F38353834323741342D343835462D343034322D383541392D4331303331363839454531452F617474726962757465732E62696E504B01021400140006080800B670623B08DA0BD190000000410100003600000000000000000000000000260F00006662782F38353834323741342D343835462D34
310
3034322D383541392D4331303331363839454531452F6469726563746F72792E786D6C504B01021400140006080800B670623BD9A3B367FE000000A00100003B000000000000000000000000000A1000006662782F38353834323741342D343835462D343034322D383541392D4331303331363839454531452F7265736F75
310
726365732F636F72652E786D6C504B0506000000000E000E0080040000611100000000
  0
XRECORD
  5
113
102
{ACAD_REACTORS
330
110
102
}
330
110
100
AcDbXrecord
280
     1
270
     1
271
     1
  0
XRECORD
  5
114
102
{ACAD_REACTORS
330
110
102
}
330
110
100
AcDbXrecord
280
     1
270
     1
271
     1
  0
CELLSTYLEMAP
  5
4A9
102
{ACAD_REACTORS
330
104
102
}
330
104
100
AcDbCellStyleMap
 90
        3
300
CELLSTYLE
  1
TABLEFORMAT_BEGIN
 90
        5
170
     1
 91
        0
 92
    32768
 62
   257
 93
        1
300
CONTENTFORMAT
  1
CONTENTFORMAT_BEGIN
 90
        0
 91
        0
 92
      512
 93
        0
300

 40
0.0
140
1.0
 94
        5
 62
     0
340
11
144
0.25
309
CONTENTFORMAT_END
171
     1
301
MARGIN
  1
CELLMARGIN_BEGIN
 40
0.06
 40
0.06
 40
0.06
 40
0.06
 40
0.18
 40
0.18
309
CELLMARGIN_END
 94
        6
 95
        1
302
GRIDFORMAT
  1
GRIDFORMAT_BEGIN
 90
        0
 91
        1
 62
     0
 92
       -2
340
0
 93
        0
 40
0.045
309
GRIDFORMAT_END
 95
        2
302
GRIDFORMAT
  1
GRIDFORMAT_BEGIN
 90
        0
 91
        1
 62
     0
 92
       -2
340
0
 93
        0
 40
0.045
309
GRIDFORMAT_END
 95
        4
302
GRIDFORMAT
  1
GRIDFORMAT_BEGIN
 90
        0
 91
        1
 62
     0
 92
       -2
340
0
 93
        0
 40
0.045
309
GRIDFORMAT_END
 95
        8
302
GRIDFORMAT
  1
GRIDFORMAT_BEGIN
 90
        0
 91
        1
 62
     0
 92
       -2
340
0
 93
        0
 40
0.045
309
GRIDFORMAT_END
 95
       16
302
GRIDFORMAT
  1
GRIDFORMAT_BEGIN
 90
        0
 91
        1
 62
     0
 92
       -2
340
0
 93
        0
 40
0.045
309
GRIDFORMAT_END
 95
       32
302
GRIDFORMAT
  1
GRIDFORMAT_BEGIN
 90
        0
 91
        1
 62
     0
 92
       -2
340
0
 93
        0
 40
0.045
309
GRIDFORMAT_END
309
TABLEFORMAT_END
  1
CELLSTYLE_BEGIN
 90
        1
 91
        1
300
_TITLE
309
CELLSTYLE_END
300
CELLSTYLE
  1
TABLEFORMAT_BEGIN
 90
        5
170
     1
 91
        0
 92
        0
 62
   257
 93
        1
300
CONTENTFORMAT
  1
CONTENTFORMAT_BEGIN
 90
        0
 91
        0
 92
      512
 93
        0
300

 40
0.0
140
1.0
 94
        5
 62
     0
340
11
144
0.18
309
CONTENTFORMAT_END
171
     1
301
MARGIN
  1
CELLMARGIN_BEGIN
 40
0.06
 40
0.06
 40
0.06
 40
0.06
 40
0.18
 40
0.18
309
CELLMARGIN_END
 94
        6
 95
        1
302
GRIDFORMAT
  1
GRIDFORMAT_BEGIN
 90
        0
 91
        1
 62
     0
 92
       -2
340
0
 93
        0
 40
0.045
309
GRIDFORMAT_END
 95
        2
302
GRIDFORMAT
  1
GRIDFORMAT_BEGIN
 90
        0
 91
        1
 62
     0
 92
       -2
340
0
 93
        0
 40
0.045
309
GRIDFORMAT_END
 95
        4
302
GRIDFORMAT
  1
GRIDFORMAT_BEGIN
 90
        0
 91
        1
 62
     0
 92
       -2
340
0
 93
        0
 40
0.045
309
GRIDFORMAT_END
 95
        8
302
GRIDFORMAT
  1
GRIDFORMAT_BEGIN
 90
        0
 91
        1
 62
     0
 92
       -2
340
0
 93
        0
 40
0.045
309
GRIDFORMAT_END
 95
       16
302
GRIDFORMAT
  1
GRIDFORMAT_BEGIN
 90
        0
 91
        1
 62
     0
 92
       -2
340
0
 93
        0
 40
0.045
309
GRIDFORMAT_END
 95
       32
302
GRIDFORMAT
  1
GRIDFORMAT_BEGIN
 90
        0
 91
        1
 62
     0
 92
       -2
340
0
 93
        0
 40
0.045
309
GRIDFORMAT_END
309
TABLEFORMAT_END
  1
CELLSTYLE_BEGIN
 90
        2
 91
        1
300
_HEADER
309
CELLSTYLE_END
300
CELLSTYLE
  1
TABLEFORMAT_BEGIN
 90
        5
170
     1
 91
        0
 92
        0
 62
   257
 93
        1
300
CONTENTFORMAT
  1
CONTENTFORMAT_BEGIN
 90
        0
 91
        0
 92
      512
 93
        0
300

 40
0.0
140
1.0
 94
        2
 62
     0
340
11
144
0.18
309
CONTENTFORMAT_END
171
     1
301
MARGIN
  1
CELLMARGIN_BEGIN
 40
0.06
 40
0.06
 40
0.06
 40
0.06
 40
0.18
 40
0.18
309
CELLMARGIN_END
 94
        6
 95
        1
302
GRIDFORMAT
  1
GRIDFORMAT_BEGIN
 90
        0
 91
        1
 62
     0
 92
       -2
340
0
 93
        0
 40
0.045
309
GRIDFORMAT_END
 95
        2
302
GRIDFORMAT
  1
GRIDFORMAT_BEGIN
 90
        0
 91
        1
 62
     0
 92
       -2
340
0
 93
        0
 40
0.045
309
GRIDFORMAT_END
 95
        4
302
GRIDFORMAT
  1
GRIDFORMAT_BEGIN
 90
        0
 91
        1
 62
     0
 92
       -2
340
0
 93
        0
 40
0.045
309
GRIDFORMAT_END
 95
        8
302
GRIDFORMAT
  1
GRIDFORMAT_BEGIN
 90
        0
 91
        1
 62
     0
 92
       -2
340
0
 93
        0
 40
0.045
309
GRIDFORMAT_END
 95
       16
302
GRIDFORMAT
  1
GRIDFORMAT_BEGIN
 90
        0
 91
        1
 62
     0
 92
       -2
340
0
 93
        0
 40
0.045
309
GRIDFORMAT_END
 95
       32
302
GRIDFORMAT
  1
GRIDFORMAT_BEGIN
 90
        0
 91
        1
 62
     0
 92
       -2
340
0
 93
        0
 40
0.045
309
GRIDFORMAT_END
309
TABLEFORMAT_END
  1
CELLSTYLE_BEGIN
 90
        3
 91
        2
300
_DATA
309
CELLSTYLE_END
  0
ENDSEC
  0
SECTION
  2
ACDSDATA
 70
     2
 71
     8
  0
ACDSSCHEMA
 90
        0
  1
AcDb_Thumbnail_Schema
  2
AcDbDs::ID
280
    10
 91
        8
  2
Thumbnail_Data
280
    15
 91
        0
101
ACDSRECORD
 95
        0
 90
        1
  2
AcDbDs::TreatedAsObjectData
280
     1
291
     1
101
ACDSRECORD
 95
        0
 90
        2
  2
AcDbDs::Legacy
280
     1
291
     1
101
ACDSRECORD
  1
AcDbDs::ID
 90
        3
  2
AcDs:Indexable
280
     1
291
     1
101
ACDSRECORD
  1
AcDbDs::ID
 90
        4
  2
AcDbDs::HandleAttribute
280
     7
282
     1
  0
ACDSSCHEMA
 90
        1
  1
AcDbDs::TreatedAsObjectDataSchema
  2
AcDbDs::TreatedAsObjectData
280
     1
 91
        0
  0
ACDSSCHEMA
 90
        2
  1
AcDbDs::LegacySchema
  2
AcDbDs::Legacy
280
     1
 91
        0
  0
ACDSSCHEMA
 90
        3
  1
AcDbDs::IndexedPropertySchema
  2
AcDs:Indexable
280
     1
 91
        0
  0
ACDSSCHEMA
 90
        4
  1
AcDbDs::HandleAttributeSchema
  2
AcDbDs::HandleAttribute
280
     7
 91
        1
284
     1
  0
ACDSRECORD
 90
        0
  2
AcDbDs::ID
280
    10
320
22
  2
Thumbnail_Data
280
    15
 94
    10068
310
89504E470D0A1A0A0000000D4948445200000100000000B208030000009AD9E19E00000300504C5445212830FFFFFF2128300000000000000000000000000000000000000000000000000000330000660000990000CC0000FF0033000033330033660033990033CC0033FF0066000066330066660066990066CC0066FF0099
310
000099330099660099990099CC0099FF00CC0000CC3300CC6600CC9900CCCC00CCFF00FF0000FF3300FF6600FF9900FFCC00FFFF3300003300333300663300993300CC3300FF3333003333333333663333993333CC3333FF3366003366333366663366993366CC3366FF3399003399333399663399993399CC3399FF33CC00
310
33CC3333CC6633CC9933CCCC33CCFF33FF0033FF3333FF6633FF9933FFCC33FFFF6600006600336600666600996600CC6600FF6633006633336633666633996633CC6633FF6666006666336666666666996666CC6666FF6699006699336699666699996699CC6699FF66CC0066CC3366CC6666CC9966CCCC66CCFF66FF0066
310
FF3366FF6666FF9966FFCC66FFFF9900009900339900669900999900CC9900FF9933009933339933669933999933CC9933FF9966009966339966669966999966CC9966FF9999009999339999669999999999CC9999FF99CC0099CC3399CC6699CC9999CCCC99CCFF99FF0099FF3399FF6699FF9999FFCC99FFFFCC0000CC00
310
33CC0066CC0099CC00CCCC00FFCC3300CC3333CC3366CC3399CC33CCCC33FFCC6600CC6633CC6666CC6699CC66CCCC66FFCC9900CC9933CC9966CC9999CC99CCCC99FFCCCC00CCCC33CCCC66CCCC99CCCCCCCCCCFFCCFF00CCFF33CCFF66CCFF99CCFFCCCCFFFFFF0000FF0033FF0066FF0099FF00CCFF00FFFF3300FF3333
310
FF3366FF3399FF33CCFF33FFFF6600FF6633FF6666FF6699FF66CCFF66FFFF9900FF9933FF9966FF9999FF99CCFF99FFFFCC00FFCC33FFCC66FFCC99FFCCCCFFCCFFFFFF00FFFF33FFFF66FFFF99FFFFCCFFFFFF0000000D0D0D1A1A1A2828283535354343435050505D5D5D6B6B6B787878868686939393A1A1A1AEAEAEBB
310
BBBBC9C9C9D6D6D6E4E4E4F1F1F1FFFFFF0000000000000000000000000000000000000000000000000000000000002E4550F1000003A74944415478DAED9DDB72AB300C45F5FFFFBBDF4FCFA450DB183089B144BCF64C4B9392182F748349643384104208A15669F66392D4E96D3ABD53AF23BA76E4C1F44073EB7AE02206
310
0000000000000000306F2134B22C92E349D0CE931A7920FFC7D36A0D7F1BCD034005809FDF9A0A406901B22A801B9C390A80CA4C6B00FA0F1514401A0ECA1DF5C90129AE0B68FDD9CE7F31DF64C737EF593C01C0D65D7FE7AB57B4FCDBE97B0028CB08FBFF4F5DE0374AE895317EB3867250E9E3E5C54101A416B0C4C0ED6D
310
1EB5A602AB6E92B9ACCFECE58AC100CAD1D739AF65416601C9595D8D4207E151E55FF9DB9EF9CAF82CB002C866FEDA9C9C6CB3160B506596398E086970997152201716D00CC07200AA8C1C1880B607FEE1500F03505A40E5C46F02C8B10BE41126600CD82440D90E00BD05A016036202A8658193EBCA24395851253C270B6C
310
52A4355B40631D606795A44729DC486A53ED6D6ABFFAA6752EDADC8C1902C05A08E85663CBEAE0F1006C7200ED2E703B001717E8BC63DFA102011877833F2680310AEC0283E62FCD0D20CC5D612C8018E0EB080000000000000000000000000000000000000000000000000000000000000000000000000000301100C7AFCE
310
020000C400000000000E7397CF87A51566FE3639009B1D80970BAC5F1257103B7008820EADFCA26581E9015007000000000000006606A0204C1C003876768E62016A6A6EF1DD004E1A02CD00A068A93623009B1BC0BC59000BC85A8575A9A1F44817B86401DF08E0D2987B1D843EAEA61E03A0A4F13516D0780A7BB9C06634
310
A76B811000BCFA074401E0D64162D30CEF14409FBE399576AA7AC8B5801A2CA001C032DC327BBF1E2257B3C03D001C7B88ACA5F06000B5070F7181D320D10A40521C007605C06937CA460056B4DE7E480C90CD0EE07B5C600DC1D7B240877D6204C1B501BE23802CFDBBF414BD7A5BBC1380B493BB1F80775A3FF62B85FD01
310
9C1DDC9DA35779CD00400F68AD3D11805B977F7BE3CDC703A89F9FBDCA589F999892B2DB968F6866CB183801C83BC25F06B0571AEED2B57485A3AC1CF40260B24A34CED6E13906707CCBC9EAA13E100059BEF85C729D90ADC5D55A261441C6F673DD814B0E03508B6DC549B2621D241D2F13A2B4D2B2DCD30F5CC30D80A921
310
45A6DF67D0D10561B6AC4295543400A61600A65600F9D21CED05C87800AC3A1BBB10B2112EF0C925EF1D03030000000000000000000000600880C3CFFA5DAC627BBDD6CB0274B0F869FB1D90EB037F322E2E80104208218410420821841042082184E6D43FD64CDBCFBF644FFE0000000049454E44AE42608278C0F7BBF551
310
DCD566B3766D01ECDAF5C2B516804AC012ED2ECBCC7BFFEDD3AF3FCEB1C8217FDB4101729326D04030F55E341B4E25A0F803D04AF447747FD4E4280107A959E7A232BEE5240A227E8CF147A705F051CA5CA4C4A986D804036245F846E32BFB6F25002820E73862C03BD5F7CAFDB875BD26FFABDFDF9EA71378409C5502BEFB
310
F0DD87BF7CF8F0E1BBE52FB2F55F1FB0FF1D0B805B7FFDEEC38612305F4900A7C2C55402C41EF80A264A3D70BAC180C53060B96D15E5ACABAFFC1506A80448E52E3FC8C37FE83E7C58BA0FD753DD3709D806034E9362C001F6BB71BF48FD4BA9330CA09438E5012FB4FD5236C480EEA6ED1FEDACE3CA031CB985A0A0702368
310
881FBA1F8451C97C005B22461E803DD3A618507080EDFF54D9F8A9D5502D0F00F7DD93DC3BB3009CD17B59EFB129C7F7DD1E9A4F4ED871CD3FB0E323D6BBCA030EBCC93C8900B0B2FFC2D680CAFFEEAFD8F8C1A472430C984C06AA06B0993C6DA177447178E501EE29BB49B6CE57EAEE962395FDD8F28083C9CE07A9FFCE7D
310
901965F45F0EDB1D1F9F92B91D06C4060362B366CB382D15284522570C78A10914BDEF6F34A56F28C18E3C00D27D7A769ADA2F948B6E8601C675C1070EA7B238B503EAB603460853FB58EC7AACA1CD69EB63EB7BD16052AFBBEA0B706C2B38AADFEF5CDC1D75BB8BDED11A9C2067ED7D6B7D572BEC3029AFDE0C03E0855A1A
310
39F8CD497D766CEB318662D5C5AC0D9C47DD8D3F0027652900B76329456F8E845D90539738158BE3EA364F6EBCD00EDF0A0322706E01F6090FFB3861C1F491F6F834FD1D9E3F41E98FF0E05DA625BA776AEBEFCA5311D364F99E47BFAF5A5F353FE4E47BC1C15D95139E0D4F8948007C0FADC7811874BD3FB3112EF4076C84
310
01E49C52F2BFAA3FECF3E7C68BFBD9FC84B2FE3CCBE7129BBA655D96CDDD8BACEFDA7F543D42CFC70AAE7DC23449960D79C0C16C81D3A5CF9C477C861452BB2F47F0B9F8DDBBBD6AC1774EF51AF7A10FA534DEED75BFAC3BFD6EA77252D6D0F0F2CDE2E49A31C992D785732AF70B63FFA5B68BAD6D8169C2130E7D9225F729
310
A5D00FB9EF790C6B9942FFC77A85E54951CEF5B3CC2C83D4B324A669F5164D9BF000274246BC2F12C03AA7048C6BFD63DEF7FB54A501E7C8593E85667681EBD8797CBAD87EE312CEF699DBB9E71EAFC0EB04BDEF58EF57B62F151B050BB7B205680DC769ADEF01BF2F510E747F18650D11E0F6A08BCA495D449AF1FCEA1D0D
310
21628EC996285FF11CFE4F946BF7FCBF6C8B7E97F338E0E951F6B285ED692A20B5190698BEA7048C574B62CD8CD6FE0B0E8C375871BBA41DB03FB69251BEF3ACE97A55DDABFF2BF71B83CA06A47F644BB8205A12455B6D8901E4630503AAC40FA8D388FA605DC66073D46DB6529611CE6B678F4848484F671103997C4CDAE6
310
B12342A52B453E1533E200D62601A769D9D01638D81C2F6B9B0FDA06F1ABFBE79EA4A9D7F6333F7B4EA963997D80A527F51B5B99F14536C661F4728E57E9E85D90DF70313DBDA52DA05A70320C401D7929FD7E483E06612D9E15E73C2B36A20619EC920F790E6C611D9CB6FF145C48B5ED034392D637DA7A12D9F168F31404
310
2F351DE510B026F21E90007E87FF915D2F7A685267F1A618E0AEB40070DD47C3E6B0E793EDC3DEEFBCD8B741705C9E19DB5297C07BD779E1791E36F05ED6A2E3E5BBAA1B8A3E675DCB93E7C4B5AF3A20E6F4901F5826D92BEE546EC0FFFFD2044D36F408550CC88ACD11F52535837A66AD07A793A0BBD3ED8892F13BA7F63F
310
2C7F72217CEEBC6AC384FA35DD2E93D47E9E6585C3C22FA11862CE4CFF49D179D101D23EA24A458A738EF10E3C806667748D04C86F98F3ECF0FC63883BB787168F5E9AC55E9ED94B09684B060E86B88F220D22147BCE6826222DA1B66F9B7BF23C3FE7C7F951CA608E0FF3A39440065750EF835C91F7C3BD338F709DC3A5FA
310
2BB7E301D3D462803FCBAFC2BD33DBA68F3DEB52EBB4B4ED9858A569DD0FA9E87DD30B11CF277568FA3E59BD63CAB6C615F89C2200CE41E6EC7B4E726F69172601D39618603E31E501C99D65965FAFED71C5E92B5D3FCF0FF9116D3510095A3E68ED3B1AB683FDF5860359FD7DC820E256428B5309389C8F398D09F5FEA812
310
00E93886F0C59E3FDEC916C85EDBBA6273F35CAAF13DF5B88F90DF19AD051A032D4325805250B6924905F5397540B976CEF279167891FB0105E47965BFD77AFF1B7886C302004ADBDB0207D30327E501BE3BCB9E332DD0EA7BCC7C7AD18BB3D3DF2878EECB1991F56EA52067259E192BDFCBFEDC9D8E273C77704791B30350
310
50FD8F59EE2A3297A4648EF2DD41F48D13AD22387B175BE0D46000DA2DC95EAD7FE07894BA371C9013429ECFA8C9A8E70211A037E439649DB99ED1BAD3ACC7C8ECE4615D777407CDA538CA731E482D8837519E1BF217692D331A240525F2D64AC0A63C60F507688DC4A6FE7B5BCAB63CC02C127C3A4A2B464D47E8AC393D08
310
7C617934247BD47D2905B61D07B977EFBB4E98D54EECA5F7C70EDA9556A30B3BE7D81EBA632765219A34820F88047DB1FC81B879640812002A5E685E69FBB9AF08A0EC1F9A411AE8E92822DCD3022CE8FD5B131480FC7790DADDEF77A241C19EF6DDDEF79513F62C654AC0E1282D4040288211AD1210B704C19609AA46DFC5
310
C2E4CC726FE7E867E13CC75DD803E9450E6A2CE1F9B9707FC8813240A06690E7EF3DB8652A3608CAE6FDA13BBE77DEFECF5D6ADC763B0998CCE95B7C3F8D8D67BE2112F5DE8E2561C3F0FF82F5A6A4D62132DB5E58F0FCE004C51F406B4F340EAE0ADBAFC79D06D891419D87B82AF44488E636DE9207D023E45A7F40B5E394
310
0BF4607E7DC30360D105726172041F5F9180E4636331566ED1F7E08C2203B4FE85074AC976EE3D78B5B4B23D7C87C17FD1D8C09D30003230D8F347AD7F9387B02241086D6B48A8DB98C85FB331D8B9AE75513ED9A35547D32D6AF3432222FD4303EF149D22108C8F085FBB8FDB63408D015D5A1F0F6A58ECF208DCAFDCCED0
310
C045DFF04269B9F90D1890CC2600EA8740AB1357D13380243C86BBC2DA220BEABC1CBDD41CB28D7D82A605CCCF07FF5EAC6D3EA4981AFF5E528EAFFCAE4F6FC200E513BDDA9BE00D7D805440DF422ACC5EF0EE2C7B6710515A5BB14A40DC2E47A8C4FFE011BA6AA96A973FB7A8E7DE3CB8607C6FC2007041A9F5F8407B5019
310
A2E90FF5398ABDB8EA93A4F640FC124BBEEA3D3000D62EEB1BBCEEB7A79C93720269B5A84B319DD8D64BBB6FDBBF6140501611792AAC214A013C2451B7E59A30050A73C88625C51A8C5BE50A4FC6028801B075ACAEA258EE253FE866966F92B17BF5F7F837F100C3F972AEC51DAA04D00F18610BFE13CF4EBB50B6E225560C
310
D85802840704B26FB6C72BBBBDAD4FDD47BD17244F6FC480DEF042E47F4EA663880098F2202210B08001C042C8EA87BE833FA0E101DED0DEBF86EB68D78AEB29BC2E01A9C85550DC0766B0FEED3F711CF221DF8935788245E8667ADDA2FB559F3F4E9B67880806809603D380F29042D45FB2B5EEA7A2E76389E6A51C2B0FC0
310
799FAFCE37CF16AC07D527D1EA9C7120C48450FBBA277C90562135A02B7661D502A7ED78802BFE0061E7CE2B5ABFDAAADB78CFABF2425B20ABFFA81CF1495BFDCA03E023EDC412129BF9D8916C8B5DF82B735736E6014502E0EFD9D36F1F5F6ED3900078CD9EF080FCE4DC99F2E28B5F413140E50138A212009350E5237487
310
039E5FD8A01A058D046CCA034EE001E0FB0E35E1DE50A7BEC4918B2D60BEBCEB79362DE00B0614D9E2FF87B1E60150A3EC0500DF1FBBC39FBDB75C82F0A5E44ADF83072044E7ACA55EEBF278BB0642C3D7932DD85BEABAE2C48D2D6031E4EA43A2164888FF0EB40733E3CF5ED83F2BDEC332844B28DFC31FE0740106246240
310
7A1503E612E1453B76E9CD18D0F0801273A63568BCD25BC6D14EBDC9C099CBA9648EFD7FC3809446C580F0161E10953510022A0604219216170E9087A4D2A78BB1D24602B6EA2F50F2224502F6C1BD1103E499344764C5801774865F7DC32B130406C2133CA79128409D1B93AFFCD224206ECD03ACE756C500D669D2369C6A
310
DBCF0D06E48201B4EB18CAABDF27FB9F54CF57CB276AD64F54BC4849FD43817B1911A231275E5B234A11D7C9B94AC0B4190F88D65F0B12D03332FE261EE0638DFCBD0531ECEC9E78911FB24A00DA8F214A3FE69FC50EC0AC5E832227979ABF7B070C40BB431ED46B18A0755A727BD28B3CA0DA028813F745B632E2E19400D3
310
0BB4048B5D002B3392335F69810DFB0B1806F4F0CAB19E8801E94DB81EDE660DAADE873FE92AD6A467284BB088616CD865B2B840BC130F90165030C0ECF26796C20334422CF56AA7175B404BAE2C2A2F5ED97E2E3981EA05D6D6AE9900C01292FFB3D3D094E98ACD7980DADA52C21F4502E0AD2706E468F2FC120F783B0698
310
FFA7EA8DE21FA457309B3528E5AF51A1460262B87C2CF9F3DB6140630D3AF080F4560C489A4BF8220FC82B0694FC135B440EBC65A40D220F198927E86DEEF59A6A37E7CD63836BDF6D60009C626FB4058A3FE88D1E21D4692A39A8DE64C0EC01CB0ADD6916715239B1FFFC52FB726C1D192213AC1890571E5096CF37FE00B6
310
5BCD1B89F926F7A3D8027F2BAC2194DC6B8D15AB2721F15E3D3342B12D16A0CC621B006198A3729521B22506280F1091F4E18D167EC901430EC0AB7101F320AE99C00D1628367822810F767FC51548CEC5BCF6F16EB640CF58CF6FB4FDD2AE53C5008DF9950CD2EB49F34BA3D63C624888FFC52203A9E41AF35B5C36301F4D
310
E3930C1BCB3FAF5D4A36E301A59F14AD41EF110FF46FB1056A0E206B3432A6133583C45D2D7DCD2D67E4E15A0634373E47CD09A3CF8859A39002BFCF6A0DBA7BF41CA51608C86437477FB1E76F3940F509C27E432E19537D91ED210B721E3CB0847812B0EF35EB171992E480A26D35FFD87804B3EC190F2226D23B04996044
310
FA2A4F70235BA0100DF0801E125878C0CB3EC1B8E681F685DBA1EE7C6579BEC6197DA05C69EE49C9360A15059027E20FE7A3EF2DA350CA6A243FC8FDC5BACC6CC8034A9FA1E731203D8B03E40186E4A9D427E2BC6BAE600C165F642C58F93DD97EB09CA36079682989CC44470694337386227CCDF4256A7F816959B6EC3788
310
BEE1EA11FAEFA428ECFE450C509F9FC60EA32ED9E27BB9661A6458783F42678001A09C8A4D191C62E19EB9A2F2BF4E3335994D281880D17D2E9BF61AB37E83CC0F601E4858157B89D5353EBEB9F8782C175CFD38D7FF70C50B72C92D4A2601E673326EC8889CE68823CB4C2D027000A62A3512B0954F904D8071819F7FFA79
310
18D922F3ABB19ED4E602871C5E460CE6012BB2500F4437C7CF678D17668D4501FB10218135244FCEDC49E78EBF82016897996D7900FA0C0DE3F0F3C07C9DF4C4066CF120694CB0F42BA23E7FC176D073AC2F02738C7AAF3C01D8E8210F9A8B0899087C6E744C38B691A1FBF41790FA1FC612AB0F33DBF1730BFAF6A4D0C487
310
A51E5F93806AFF910D6AC6B05C037D44D44EA67CC026C67C76C8C305A7F855C733BA4F7F8101135AF6681EDCDF98348F24ADF62062BB373901CDC2F8C180FE60DA2B44667FD608613F0EDA3301B241AF40D4BE04CC24C873DC9E07941CA1283CA0F6E322669B7FE699F98AC96B64B77F410252ED07184A7FC0809E11679107
310
9300B27F0F0EC13B203EEBE29E5A20C6B50FF5E6394201FD78D057700023D34E5EE4E4E82581851E93A87962A9C4F7F0975FC000F48B515F3FEDBE815AF0ACFA601CFA44EFB2E00E3B90ED30E29C73FD5E56B21DEF8101879A1FD0D469EF5368F43CE3B79613607D42AB5F478EBF280171B5014ABF34B9C2F9B34A80F62255
310
06D02B970C7E95C5CBE9740F0C28D9E296DB9FB49F2838AC717C76197396F0AF99EC6CFFCCED49E929063471851819F3F111FD4223ED7F7FA60464C500ED3B54F0228139A76836D3F61850468DA304C4D573D78FFB3DC7FFE3D2B9DB7181BAA61F69785D02A855C00667FC4FD841DB5327D0028AD16229B1440C9879AF1270
310
D8D827A89121F61D66EEAEF609960DFFE248507BE8EE3CFE043E2B24FE39BF41C500F418F3EA17367F00324160264A5B23F21B8F505F30E58ABC31DDA7CFD02A01D56F031CD877EFDC9EE3814006FE6CE34095A55BFB788FAF4800397EC905903A07BEF85D103601DE31A63562582580B121F4BEB80B0694BEC343E9353C52
310
06DCCB638149D5A1CD8C3F8D68E59916107BFD24EBF5A5B97F6409CA0306D5038151517882A360002422AE7913516524B05F86B492ED31E0B0E6092EC6CA9645F3356C4C3062808D21D62C6CFF33B88CC057B0DC5F6FFDE6D6BEC4BE8C43301AC348607A263BB547C68D04305B0D5C50FB0DF2F76DC8031465DA418399FFD3
310
4AC0BEB3A1A3EAC0B1FBA4911E93173239EDF759F340A8FB4B4E313D5FF01FA1FB90573E30486BE833BD2B663FAB8D001514D49F38D9485FF7E0010B6B5EEA655966D41787CBD2F140761C11686F6385EC99C7513160D0BA7C8507520B8C3DFB9369FF00CA444F3B31DE7A1A7CBF878F80E307DCCF1658A2F50F58D856D56F
310
A5135A29FC7DEB11F80103ACA7611CC721BFD06D486D018103B496C87C544F5C605E28828B2998B7487DC92C33FA1543BE0706142D1030CA57EA312E581FC636929718D3678C37545F3E7C7DA8FD442C7F252E4019D16B8E757C92ECB487E8530C508F92F100B7B52D5078803CF7B28484D1CE848B0DD6B6E1EBB31EDE88E6
310
7BDA7F1CEBC0EB3803E0C8F1355BA08C0C00B780B21CF6B354AF00E3E4B9E60D33775C7D8277E93BBC8E225324202FEC0F3020EAA77DBAD57E87CD936A2C8FD601FABC08C79DC32B4C50AED2B3AF89C953827648EEF359FB1EC61B091835362A77FD721F0C509FE0D25BE46A31FB5D6A035890D14FD2D15BAD711CDA001E1D
310
69676531ECEF6FF9C1B9E68958D6FB2A0100F88CBC20CD043109C85179804A808E5D00CF001D4377F3071409C82601A3B237207C78D0DC0DB163C6668C1FF5FC6BBFB2FCB22D40CC08E83DEE0DEF7E84261489385FE50C97B32911E7233C43BF46CB66BE833FA062405CA4AD629CA03C8EC0EFF499FEC9B883D14EF39FFDFD
310
32F17FCCF4F7BD84016AF70BF5477FB054B4BD48C059BDC4D150A4E88184BCF1F8C427386DEB138CAB16C84BAEFA9D92805AE8C42286ED22F5D36B661071021A00B1AE9731C07A233A660A597C8812002CF4D73926EC9988E5CCFE0271BA9F3F60E9AD27D042A63E0E3AAE53CF31E29DDB39E56FC8F6029E238E2B96C0002E
310
C8E866933FD0AE51FF62F7CB7F2806680F0162C0999ECF940C0366EB8BDEAB25701F9FA094EE7C2A186075BEE0D71A53632F5FB1DD5CD8574BD1D33B56FA99C29BFCA204A82C05F4317589CCCF7A9BB8A83D8743CB23D58608E61BBCC43BF080C9FC01D40268FB0BE2A4833E3F6378E8EBABB160F5E14ABD217E80F391EF3B
310
8E2F6180CA52AF3EA6406F4F96F2C82362006717B4DF007DC08A034019F30986BBFA039660765B358A6095B17F50CFBE1EE941A3F8E8DDB9271638E2C1CB12901449026DC55CFAE3030D76A2EA76B49362BE928032FE6C1947688AF14E18A03E81D52A8C1A098CE9ACB97B1ADDC3585236DCD4C0DCA72167CDF62CFDFFEA84
310
7C2F48C04FB07BE4DC61E458551A5FE805E67BF61D2F36A48E5B510AC0F20396E55EFE00CBDE582560663F41C6028F71ED070A09F0880F280BE8BDD4B0A7E7AFF1FC9A4F59B16228E303AA57203563078E6A1984EA63148C5925E052E3F75BFB03AE6C81B500ACA768162290949F6BEE0FF277440046F036AFFA51F301224A
310
88FDC4B8003BA053BC1040B51B6963803F8CF40F348BC8CEF8F4C50A27BE03666B7F40B50623B8C012BCE66ED9783FD0585D5CB3436CFC00D805FFC2089A2BB75825459EF98163569588146B80B64886042C9000BCDC65C3FC00EB354726082B409A1E98A0A0418A18DFDF317FFAACA3C6140CE0307240F4C5DBB0B175BCC1
310
DB19C184E3B15BD86F4835C25872066D5431347DF61E94274E413D524022616536A2E474370C301EA06B8F58F5A9236BEDCE25B3DB33EB67CFF140FAA5A3B7E810EB384A652EE30945E1D0EEFD6EF121574F50418064A34AE5C0ACC8040D9C4A74B248C0C14695DDD816200F907B0E9000E3037D77401F3EF037BFD711D410
310
B581290020476C70C1F37747CA477866F190000E260FFB375ADBA73F48F3449C5A9A8563548B34734C5B6671B96D6D017D77448B01620C599F30AFE2BDAF63C87AB47BA97DDF3BCDF0D1B709A0A723C714529F30D73A6E845874DD8E23AA07F310234AA4BD84D85FE2489C818F4098F40330C0F430DBC9F2E564EF3A3A6C9A
310
2BEC566B1092B7585ED7D06B1CB0E7D812EAD2B15C3E8C3189F06079A7CA0E7DBE3D38B2E60C72A8491E3B62106999E101561F722C6336637442479C493AFE520606E0B97161E2C014DDB6B9C2ED38422B063479BD355A54A28023473CE59840E46C71C668F9EE482C802C10158E36A634D63BBECD27041B3774C580B59788
310
8D30381303A00B1EA52502072E269FA77BE40A2FBDC6707ADC5BC712CE3ACE4F1D6FD8743A8C411D6B405F9EF1246EE4AF46166713F0161FA2CE270E845E33CDE90434CAA118401A8EF39B4CCEEDFC01161B6BADC1BC627548755CD0922F00FCCFEC61040C38B2D68165D22ABAEE3DDE2D7074477BCF00201072715C82FA0F
310
1A9F9294E14EC3ED59EDE7FC1897864DE2975CB6EE2FA001210EF55F117858D6D18535C39FC864FDC5137D787407488D2E1C29FEC8518F04F59E0E32BFDB152DA07E467A146BD6FC1E6F22D9BB929898D362D1F1C17E09AD41BEF164A302C0FB062F0BDEE9F70C0F6834F6D5F8D28CFBF5F4189A041CCE520882F26CFF3B06
310
CFB87E8F8892E801E101A1890F36F265D963A51F8260C0A23E4461C5412480EFEF9D4F5BBD6FF0C277AC2EE54D9B916387334656306030A91D2C76DCEB4840C827824E571E206D489E5434432B01BBFA26429300ED3536E8A8E183E60B9531CC13ACAB90C84596C8FB0006167BDBDCB4E13B47177DEFEC7469897B18FBDF9C
310
4BAE10B9FDDB6D812245A38E32DFCA968E4280D18CE999AE380009A8EF9EDDA6002EFA0609BECB0196BDE27C886C83FABB879ADB6532C0713E740CF89F380F36972DEFBA7EB0FFBB9E93668D47DA17BC22E5AB67C491A3883CB106EBDB77B77CEBECA418705BD7CFCA82F7780394B3DA1B5ABD5EE6D039BFD6EF95DEE715CE
310
EE7C3CFBF53BE485B1AC4BCCB079C7409580691B0CF84A09D0F77A50C707B4F95EDBA97A658C1B0CBD62823F72C4CF20C63DECFAD59E2F359C3032AD8E34D5F7358ED437F9A2D47CE81DD1C3A7CE7BD10FE019371CDA777AA446022EDBBE775824009E60E62D8546025A3E001975ECDD29806779C52B3FA8736CFA965F7108
310
E501DE1FCF0EBD03104FE8ADEF2085ADE62506F26D68872FE5FDE6D36618F07B5F271D38F6187B07E1D36B4621AC45F6910935BFB07C8378FFEFBCD7694B2D302FFA6EDF8B72506D85305FC00867ECCB8ECBB7BC40B8423ABAEE6AC668A84EFD00D9DD1CC7728C4B1D7B648D332E496C50B481999F7C1F97EA02592EFAEEF9
310
B815065CF4ADCE6C63FAC6B4946DE34C14C8EAA78B95C199FE86CF2038C58383B60A6A87A3EB19DEC32830D83F6004E1FA9D5F42DFEA14FA05C83F702FF50946BCA337712E5A40DF09BF110658F9CA5D12CB3D8E62BB09D6B9B4EA69A921F5CFF06D72AAD155020E6DFDE2FD80C2EB75E43077739CEBC8DC13DAFBA1BC878E
310
E315ACF7F231D89BE9F876BA2FAC9B694B1E30A925302F161BEF9589AD7E19E504495A83144D5ACC5E59425F5E3A703D696E511F8E362E981A836553FB102FD96A99923E544EA0EC61E008438931337D0F3A64745B0C981ABC7F765E4AED17A688D6ACFD7BA0C074ECB7A34A40C2B8F1FAC6487E2F65B73844FB1503D6B710
310
A2CDC7FCECFD8A55C277C0DF030328F7D4C188E3F9B4E68C9A6FA0EA73B15666F86B45CEE5F9CEFAF2C508A7A04900F2C052EF314234BD1D4B7AFCE7A2DF030350FDC522646C60B43C83C22BB0E06D14C48769A918B0B904A495ED875A13293EA99D81D2420C40AD2FFE711611400D030DA53D879D2F5A409E1FAFB1258D4B
310
000000CE49444154D494023AE23D16908011C85AAFC565F8F9272C3934390955020C03A66D31804C70B058FF30F6573CFE09A707CF436BD6662D30BAC40A0167E1366E2F1870A88716BE5018BE3F9100B1061333B0AACD5F6D8951D7E57D53DA5F602EBF709B02F8779AE60D3060FE2AA6C0EFFC3DC89DD43C90C7AF8F4D5F
310
9187C78C3770ACFD471E9AACD1DFFDECF2BF5BF0007BB336478BBD3CC86759303F36FB0FCDFE63B3CCCFAC1F6EC6A17DEEFBE796C79BFBEBAF6AB7FF9002F84F99FEF46DFA367D9BBE4DDFA66FD3B7A94CFF07531C894A073A174A0000000049454E44AE42608262E8F60C815A5952B38892D5021C70B46FCF8DE9582DFD1B
310
4F9899FBD0FABFFA16146B30B800751CB53429C799CE8BFF8179088601E3B4616CF06B7DD23A9EFB1D67DFFC01FE11435F61427BAE04E2FB387AD74BDB1E0EAC7E0B8EA4CF1C5ECDDD4F7D9F2A0FB86EFF959C151B7BC45142782E9971C6191A613EF3C15B78FAD1661270C6739BBEE279EE7CE2387827FA3DD8B062807E2E
310
C3923760CF1D617698E842C405F9ECD44E7890EF7BB9036179AE7A5BDAD3AA150322734387765ECD13555BB468C278565AC21AE7F454170AAA3E0D6FB3A7CD4102C4C0E433DE2F9F40FB949DB6CCD9071B370C1BFFAF3D5367697F5A8AE1EACCA65B680BA049D436041ECC67B6135E377DFA3C1EF6CAE74895396946DA2036
310
61B138F93CABCEB6BC3EEBB3C8EC716180A52FB6ADCEC3D52CB81686D5FFC4A5CFDBF8E194106DAAB88363E969467D41F8211F3F1278AAF3964F9FD79918F0B8A57903C2351A64D87572079A3F78784A4AF064EEA7E5C72427C0FAB963E5903ACBF57B3E87B046A72F9E7D746E77402460DC0A03E45EEA73C4468B0120E783
310
ED013E00998D2B1C403E48F182777B918058901F86FC40D3E7560F46C78502D58D37D43A41A59C56ED9DED7904C09493223EB6F33BE993A6AF209277F2BF6E27018A01FA3B18BF2B9AF5410958B50FFAE32FB090B4E273606ED0E5338296E708E496797CB5BF4611C21DB96FE2E848B0ECD2A44EA3123692D4228F31DCB7DF
310
BA29068CFFCA53C2F4A9645A813498A3D0AA91326E543DBF36797DFB979E58267A60DA520BE06C78CEE8786E2378CD07E3D43B9A43FB743DC37A3AF0D9A09A33746035F03DF001580ECFD1454ED1DE8E3DA479F54CB136CF8AFAA2FF51AF5268332AED2F4F200B67B43F9E38386EF6ECF13325201103D4EB42850BFF53824E
310
1860E649EF96B7944E6A27ACF0001E14388C04133AE2C2811EA4033C45AC3B1CA37E3E30C7EAD0F6FB3944D30F4369F830ABDE8771897BEFC5C09AED31AED488867FE3D618C07B8AFBA0DE604521B479A167B668BF74A5EE234F52FB2CAB04D4F65DE4C0158FCA3F255C6DDFAB1C24EA166D73F578E09CF26DD009C4157A85
310
9D5ADAF67BCA83E25FFA1F61C07F03CF8EE6CBD288E6EC0000000049454E44AE426082
  0
ENDSEC
  0
EOF
